Начать новую тему Ответить на тему
Статистика раздачи
Размер: 341.57 МБ | Добавлен: 26 мар 2019, 19:56 | Скачали: 0
Сидеров: 0  [0 байт/сек]    Личеров: 0  [0 байт/сек]
Пред. тема | След. тема 

Автор
Сообщение

СообщениеДобавлено: 26 мар 2019, 19:56 

Ответить с цитатой 

Rúzsa Magdolna / Érj hozzám
(2016)

Жанр: Pop/Rock
Носитель: CD
Страна-производитель диска (релиза): Hungary
Год издания: 2016
Издатель (лейбл): Magneoton
Номер по каталогу: 5999887453434
Страна исполнителя (группы): Hungary
Аудиокодек: FLAC (*.flac)
Тип рипа: tracks+.cue
Битрейт аудио: lossless
Продолжительность: 00:37:12
Источник (релизер): Naftamusic
Наличие сканов в содержимом раздачи: да
Корректность рипа: В оригинале не было применено сжатие при конвертировании во Флак (FLAC Level 0). Для приведения в соответствие правилам пережато во FLAC Level 5 с сохранением тэгов

01 - Érj hozzám (00:03:21)
02 - Jel (00:03:04)
03 - Éden (00:03:38)
04 - Adrenalin (00:03:34)
05 - Egyszer élsz (00:03:29)
06 - A könny csak hull (00:02:56)
07 - Tánc (00:03:33)
08 - Április (00:03:26)
09 - A vonaton (00:03:16)
10 - Tejút (00:03:06)
11 - Mosd fehérre (00:03:51)
Код:
Exact Audio Copy V1.3 from 2. September 2016
EAC extraction logfile from 27. November 2016, 15:02
Rúzsa Magdolna / Érj hozzám
Used drive  : PLEXTOR DVDR   PX-891SA   Adapter: 1  ID: 0
Read mode               : Secure
Utilize accurate stream : Yes
Defeat audio cache      : Yes
Make use of C2 pointers : No
Read offset correction                      : 6
Overread into Lead-In and Lead-Out          : No
Fill up missing offset samples with silence : Yes
Delete leading and trailing silent blocks   : No
Null samples used in CRC calculations       : Yes
Used interface                              : Native Win32 interface for Win NT & 2000
Gap handling                                : Appended to previous track
Used output format              : User Defined Encoder
Selected bitrate                : 1024 kBit/s
Quality                         : High
Add ID3 tag                     : No
Command line compressor         : C:\Program Files (x86)\Exact Audio Copy\Flac\flac.exe
Additional command line options : -0 -V -T "ARTIST=%artist%" -T "TITLE=%title%" -T "ALBUM=%albumtitle%" -T "DATE=%year%" -T "TRACKNUMBER=%tracknr%" -T "TOTALTRACKS=%numtracks%" -T "GENRE=%genre%" -T "COMMENT=Naftamusic Release!" %source%
TOC of the extracted CD
     Track |   Start  |  Length  | Start sector | End sector
    ---------------------------------------------------------
        1  |  0:00.00 |  3:21.08 |         0    |    15082
        2  |  3:21.08 |  3:03.47 |     15083    |    28854
        3  |  6:24.55 |  3:37.47 |     28855    |    45176
        4  | 10:02.27 |  3:33.57 |     45177    |    61208
        5  | 13:36.09 |  3:28.57 |     61209    |    76865
        6  | 17:04.66 |  2:55.54 |     76866    |    90044
        7  | 20:00.45 |  3:33.10 |     90045    |   106029
        8  | 23:33.55 |  3:25.47 |    106030    |   121451
        9  | 26:59.27 |  3:15.47 |    121452    |   136123
       10  | 30:14.74 |  3:06.00 |    136124    |   150073
       11  | 33:20.74 |  3:51.10 |    150074    |   167408
Track  1
     Filename E:\Nafta Releases\Rúzsa Magdolna - Érj hozzám (2016)[FLAC] - Naftamusic\01 - Érj hozzám.wav
     Pre-gap length  0:00:02.00
     Peak level 98.8 %
     Extraction speed 1.8 X
     Track quality 100.0 %
     Test CRC FC01D587
     Copy CRC FC01D587
     Track not present in AccurateRip database
     Copy OK
Track  2
     Filename E:\Nafta Releases\Rúzsa Magdolna - Érj hozzám (2016)[FLAC] - Naftamusic\02 - Jel.wav
     Pre-gap length  0:00:02.00
     Peak level 98.9 %
     Extraction speed 1.9 X
     Track quality 100.0 %
     Test CRC 65D1D788
     Copy CRC 65D1D788
     Track not present in AccurateRip database
     Copy OK
Track  3
     Filename E:\Nafta Releases\Rúzsa Magdolna - Érj hozzám (2016)[FLAC] - Naftamusic\03 - Éden.wav
     Pre-gap length  0:00:02.00
     Peak level 98.9 %
     Extraction speed 2.2 X
     Track quality 100.0 %
     Test CRC 0F4E4629
     Copy CRC 0F4E4629
     Track not present in AccurateRip database
     Copy OK
Track  4
     Filename E:\Nafta Releases\Rúzsa Magdolna - Érj hozzám (2016)[FLAC] - Naftamusic\04 - Adrenalin.wav
     Pre-gap length  0:00:02.00
     Peak level 98.9 %
     Extraction speed 1.6 X
     Track quality 99.9 %
     Test CRC 2CDCE723
     Copy CRC 2CDCE723
     Track not present in AccurateRip database
     Copy OK
Track  5
     Filename E:\Nafta Releases\Rúzsa Magdolna - Érj hozzám (2016)[FLAC] - Naftamusic\05 - Egyszer élsz.wav
     Pre-gap length  0:00:02.00
     Peak level 98.8 %
     Extraction speed 2.4 X
     Track quality 100.0 %
     Test CRC C3A9F4D2
     Copy CRC C3A9F4D2
     Track not present in AccurateRip database
     Copy OK
Track  6
     Filename E:\Nafta Releases\Rúzsa Magdolna - Érj hozzám (2016)[FLAC] - Naftamusic\06 - A könny csak hull.wav
     Pre-gap length  0:00:02.00
     Peak level 98.8 %
     Extraction speed 2.5 X
     Track quality 100.0 %
     Test CRC EDB6F438
     Copy CRC EDB6F438
     Track not present in AccurateRip database
     Copy OK
Track  7
     Filename E:\Nafta Releases\Rúzsa Magdolna - Érj hozzám (2016)[FLAC] - Naftamusic\07 - Tánc.wav
     Pre-gap length  0:00:02.00
     Peak level 98.8 %
     Extraction speed 1.9 X
     Track quality 99.9 %
     Test CRC A1723AE0
     Copy CRC A1723AE0
     Track not present in AccurateRip database
     Copy OK
Track  8
     Filename E:\Nafta Releases\Rúzsa Magdolna - Érj hozzám (2016)[FLAC] - Naftamusic\08 - Április.wav
     Pre-gap length  0:00:02.00
     Peak level 98.8 %
     Extraction speed 2.8 X
     Track quality 100.0 %
     Test CRC 535F771C
     Copy CRC 535F771C
     Track not present in AccurateRip database
     Copy OK
Track  9
     Filename E:\Nafta Releases\Rúzsa Magdolna - Érj hozzám (2016)[FLAC] - Naftamusic\09 - A vonaton.wav
     Pre-gap length  0:00:02.00
     Peak level 98.9 %
     Extraction speed 2.9 X
     Track quality 100.0 %
     Test CRC D14A405F
     Copy CRC D14A405F
     Track not present in AccurateRip database
     Copy OK
Track 10
     Filename E:\Nafta Releases\Rúzsa Magdolna - Érj hozzám (2016)[FLAC] - Naftamusic\10 - Tejút.wav
     Pre-gap length  0:00:02.00
     Peak level 98.8 %
     Extraction speed 3.0 X
     Track quality 100.0 %
     Test CRC 5660FA62
     Copy CRC 5660FA62
     Track not present in AccurateRip database
     Copy OK
Track 11
     Filename E:\Nafta Releases\Rúzsa Magdolna - Érj hozzám (2016)[FLAC] - Naftamusic\11 - Mosd fehérre.wav
     Pre-gap length  0:00:02.00
     Peak level 98.9 %
     Extraction speed 3.2 X
     Track quality 100.0 %
     Test CRC 9A40B249
     Copy CRC 9A40B249
     Track not present in AccurateRip database
     Copy OK
None of the tracks are present in the AccurateRip database
No errors occurred
End of status report
==== Log checksum 4EC01BF0FF1387DBAE612CF6C14A87B8DB276F2F67D6F33C6F731B27F59CA1CB ====
Код:
REM GENRE Pop
REM DATE 2016
REM DISCID 6A08B80B
REM COMMENT "ExactAudioCopy v1.3"
PERFORMER "Rúzsa Magdolna"
TITLE "Érj hozzám"
REM COMPOSER ""
FILE "01 - Érj hozzám.wav" WAVE
  TRACK 01 AUDIO
    TITLE "Érj hozzám"
    PERFORMER "Rúzsa Magdolna"
    REM COMPOSER ""
    INDEX 01 00:00:00
  TRACK 02 AUDIO
    TITLE "Jel"
    PERFORMER "Rúzsa Magdolna"
    REM COMPOSER ""
    INDEX 00 03:19:08
FILE "02 - Jel.wav" WAVE
    INDEX 01 00:00:00
  TRACK 03 AUDIO
    TITLE "Éden"
    PERFORMER "Rúzsa Magdolna"
    REM COMPOSER ""
    INDEX 00 03:01:47
FILE "03 - Éden.wav" WAVE
    INDEX 01 00:00:00
  TRACK 04 AUDIO
    TITLE "Adrenalin"
    PERFORMER "Rúzsa Magdolna"
    REM COMPOSER ""
    INDEX 00 03:35:47
FILE "04 - Adrenalin.wav" WAVE
    INDEX 01 00:00:00
  TRACK 05 AUDIO
    TITLE "Egyszer élsz"
    PERFORMER "Rúzsa Magdolna"
    REM COMPOSER ""
    INDEX 00 03:31:57
FILE "05 - Egyszer élsz.wav" WAVE
    INDEX 01 00:00:00
  TRACK 06 AUDIO
    TITLE "A könny csak hull"
    PERFORMER "Rúzsa Magdolna"
    REM COMPOSER ""
    INDEX 00 03:26:57
FILE "06 - A könny csak hull.wav" WAVE
    INDEX 01 00:00:00
  TRACK 07 AUDIO
    TITLE "Tánc"
    PERFORMER "Rúzsa Magdolna"
    REM COMPOSER ""
    INDEX 00 02:53:54
FILE "07 - Tánc.wav" WAVE
    INDEX 01 00:00:00
  TRACK 08 AUDIO
    TITLE "Április"
    PERFORMER "Rúzsa Magdolna"
    REM COMPOSER ""
    INDEX 00 03:31:10
FILE "08 - Április.wav" WAVE
    INDEX 01 00:00:00
  TRACK 09 AUDIO
    TITLE "A vonaton"
    PERFORMER "Rúzsa Magdolna"
    REM COMPOSER ""
    INDEX 00 03:23:47
FILE "09 - A vonaton.wav" WAVE
    INDEX 01 00:00:00
  TRACK 10 AUDIO
    TITLE "Tejút"
    PERFORMER "Rúzsa Magdolna"
    REM COMPOSER ""
    INDEX 00 03:13:47
FILE "10 - Tejút.wav" WAVE
    INDEX 01 00:00:00
  TRACK 11 AUDIO
    TITLE "Mosd fehérre"
    PERFORMER "Rúzsa Magdolna"
    REM COMPOSER ""
    INDEX 00 03:04:00
FILE "11 - Mosd fehérre.wav" WAVE
    INDEX 01 00:00:00
Код:
[url=https://fastpic.ru/view/108/2018/1213/beda37ccbb41d022e3f848b8ccc9cc25.png.html][img]https://i108.fastpic.ru/thumb/2018/1213/25/beda37ccbb41d022e3f848b8ccc9cc25.jpeg[/img][/url]
«Трогай меня» это совершенно новый студийный альбом, который можно найти в уже опубликованном «Апрель», «Млечный путь» и заглавный трек.
В альбоме представлены еще девять совершенно новых композиций с замысловатыми инструментами и особой текстуальностью Русе Магди, которые поведут нас в скрытый эмоциональный мир, прошлое и настоящее певца.

The "Get to Me" is a brand new studio album featuring the already released "April", "Milky Way" and the title track.
The album features nine more brand-new compositions featuring intricate instrumentation and the special textuality of the Rousse of Magdi that will guide us to the hidden emotional world, past and present of the singer.

Az „Érj hozzám” egy vadonatúj stúdióalbum, amelyen megtalálható a már megjelent „Április”, a „Tejút” és a címadó dal is.
A lemez további kilenc vadonatúj szerzeményt tartalmaz, amelyek izgalmas hangszerelése és a Rúzsa Magditól megszokott különleges szövegvilága elkalauzol bennünket az énekesnő rejtett érzelmi világába, múltjába és jelenébe.
Правила, инструкции, FAQ!!!
Торрент  Добавлен [26 мар 2019, 19:56] Скачать торрент Магнет ссылка
Скачать торрент
[ Размер 15.42 КБ / Просмотров 4 ]

Статус
Проверен 
 
Размер  341.57 МБ
Приватный: Нет (DHT включён)
.torrent скачан  0
 


     Отправить личное сообщение
   
Страница 1 из 1
Показать сообщения за:  Поле сортировки  
Начать новую тему Ответить на тему


Сейчас этот форум просматривают: нет зарегистрированных пользователей и гости: 0


Вы не можете начинать темы
Вы не можете отвечать на сообщения
Вы не можете редактировать свои сообщения
Вы не можете удалять свои сообщения
Вы не можете добавлять вложения

Перейти:  
cron