Начать новую тему Ответить на тему
Статистика раздачи
Размер: 749.81 МБ | Добавлен: 26 мар 2019, 20:02 | Скачали: 0
Сидеров: 0  [0 байт/сек]    Личеров: 0  [0 байт/сек]
Пред. тема | След. тема 

Автор
Сообщение

СообщениеДобавлено: 26 мар 2019, 20:02 

Ответить с цитатой 

Rúzsa Magdolna - Dalok húrokra és fúvósokra (2 CD)
(2014)

Жанр: Pop/Rock
Носитель: CD
Страна-производитель диска (релиза): Hungary
Год издания: 2014
Издатель (лейбл): MTVA
Номер по каталогу: 1222
Страна исполнителя (группы): Hungary
Аудиокодек: FLAC (*.flac)
Тип рипа: tracks+.cue
Битрейт аудио: lossless
Продолжительность: 01:39:29
Источник (релизер): Naftamusic
Наличие сканов в содержимом раздачи: да
Корректность рипа: В оригинале не было применено сжатие при конвертировании во Флак (FLAC Level 0). Для приведения в соответствие правилам пережато во FLAC Level 5 с сохранением тэгов
TRACKLIST:
01 - Nevetni magadon (00:03:59)
02 - Gabriel (00:03:58)
03 - Csak a bolond remél (00:03:52)
04 - Fogd be és táncolj (00:03:55)
05 - Tárd ki a szíved (00:04:30)
06 - Egyszer (00:03:57)
07 - Boldogság van (00:04:49)
08 - Cadillac (00:03:08)
09 - Bolondok hajója (00:06:38)
10 - Na-Na-Na (00:03:51)
11 - Besame Mucho (00:04:38)
12 - Jó reggelt boldogság (00:04:23)
Код:
Exact Audio Copy V1.0 beta 3 from 29. August 2011
EAC extraction logfile from 1. December 2014, 23:13
Rúzsa Magdolna / Dalok húrokra és fúvósokra
Used drive  : PLEXTOR DVDR   PX-891SA   Adapter: 1  ID: 0
Read mode               : Secure
Utilize accurate stream : Yes
Defeat audio cache      : Yes
Make use of C2 pointers : No
Read offset correction                      : 6
Overread into Lead-In and Lead-Out          : No
Fill up missing offset samples with silence : Yes
Delete leading and trailing silent blocks   : No
Null samples used in CRC calculations       : Yes
Used interface                              : Native Win32 interface for Win NT & 2000
Gap handling                                : Appended to previous track
Used output format              : User Defined Encoder
Selected bitrate                : 1024 kBit/s
Quality                         : High
Add ID3 tag                     : No
Command line compressor         : C:\Program Files (x86)\Exact Audio Copy\FLAC\FLAC.EXE
Additional command line options : -0 -V -T "ARTIST=%artist%" -T "TITLE=%title%" -T "ALBUM=%albumtitle%" -T "DATE=%year%" -T "TRACKNUMBER=%tracknr%" -T "TOTALTRACKS=%numtracks%" -T "GENRE=%genre%" -T "COMMENT=Naftamusic Release!" %source%
TOC of the extracted CD
     Track |   Start  |  Length  | Start sector | End sector
    ---------------------------------------------------------
        1  |  0:00.00 |  3:58.63 |         0    |    17912
        2  |  3:58.63 |  3:58.28 |     17913    |    35790
        3  |  7:57.16 |  3:52.35 |     35791    |    53225
        4  | 11:49.51 |  3:54.53 |     53226    |    70828
        5  | 15:44.29 |  4:30.35 |     70829    |    91113
        6  | 20:14.64 |  3:57.13 |     91114    |   108901
        7  | 24:12.02 |  4:48.56 |    108902    |   130557
        8  | 29:00.58 |  3:08.04 |    130558    |   144661
        9  | 32:08.62 |  6:38.34 |    144662    |   174545
       10  | 38:47.21 |  3:50.39 |    174546    |   191834
       11  | 42:37.60 |  4:37.55 |    191835    |   212664
       12  | 47:15.40 |  4:23.28 |    212665    |   232417
Track  1
     Filename E:\Nafta Releases\Rúzsa Magdolna - Dalok húrokra és fúvósokra (2CD+DVD 2014)[FLAC+DVD] - Naftamusic\CD 1\01 - Nevetni magadon.wav
     Pre-gap length  0:00:02.00
     Peak level 96.6 %
     Extraction speed 1.9 X
     Track quality 100.0 %
     Test CRC 3A88C3B7
     Copy CRC 3A88C3B7
     Track not present in AccurateRip database
     Copy OK
Track  2
     Filename E:\Nafta Releases\Rúzsa Magdolna - Dalok húrokra és fúvósokra (2CD+DVD 2014)[FLAC+DVD] - Naftamusic\CD 1\02 - Gabriel.wav
     Peak level 96.3 %
     Extraction speed 1.5 X
     Track quality 99.9 %
     Test CRC DDFDFDAC
     Copy CRC DDFDFDAC
     Track not present in AccurateRip database
     Copy OK
Track  3
     Filename E:\Nafta Releases\Rúzsa Magdolna - Dalok húrokra és fúvósokra (2CD+DVD 2014)[FLAC+DVD] - Naftamusic\CD 1\03 - Csak a bolond remél.wav
     Peak level 96.4 %
     Extraction speed 2.2 X
     Track quality 100.0 %
     Test CRC FED0EF2B
     Copy CRC FED0EF2B
     Track not present in AccurateRip database
     Copy OK
Track  4
     Filename E:\Nafta Releases\Rúzsa Magdolna - Dalok húrokra és fúvósokra (2CD+DVD 2014)[FLAC+DVD] - Naftamusic\CD 1\04 - Fogd be és táncolj.wav
     Peak level 96.6 %
     Extraction speed 1.8 X
     Track quality 99.9 %
     Test CRC 84D32A9D
     Copy CRC 84D32A9D
     Track not present in AccurateRip database
     Copy OK
Track  5
     Filename E:\Nafta Releases\Rúzsa Magdolna - Dalok húrokra és fúvósokra (2CD+DVD 2014)[FLAC+DVD] - Naftamusic\CD 1\05 - Tárd ki a szíved.wav
     Peak level 96.6 %
     Extraction speed 2.6 X
     Track quality 100.0 %
     Test CRC FFE5CD10
     Copy CRC FFE5CD10
     Track not present in AccurateRip database
     Copy OK
Track  6
     Filename E:\Nafta Releases\Rúzsa Magdolna - Dalok húrokra és fúvósokra (2CD+DVD 2014)[FLAC+DVD] - Naftamusic\CD 1\06 - Egyszer.wav
     Peak level 77.4 %
     Extraction speed 2.7 X
     Track quality 100.0 %
     Test CRC 32E2DBA1
     Copy CRC 32E2DBA1
     Track not present in AccurateRip database
     Copy OK
Track  7
     Filename E:\Nafta Releases\Rúzsa Magdolna - Dalok húrokra és fúvósokra (2CD+DVD 2014)[FLAC+DVD] - Naftamusic\CD 1\07 - Boldogság van.wav
     Peak level 79.1 %
     Extraction speed 3.0 X
     Track quality 100.0 %
     Test CRC B0ECEDF5
     Copy CRC B0ECEDF5
     Track not present in AccurateRip database
     Copy OK
Track  8
     Filename E:\Nafta Releases\Rúzsa Magdolna - Dalok húrokra és fúvósokra (2CD+DVD 2014)[FLAC+DVD] - Naftamusic\CD 1\08 - Cadillac.wav
     Peak level 96.5 %
     Extraction speed 2.9 X
     Track quality 100.0 %
     Test CRC CDDF6421
     Copy CRC CDDF6421
     Track not present in AccurateRip database
     Copy OK
Track  9
     Filename E:\Nafta Releases\Rúzsa Magdolna - Dalok húrokra és fúvósokra (2CD+DVD 2014)[FLAC+DVD] - Naftamusic\CD 1\09 - Bolondok hajója.wav
     Peak level 96.6 %
     Extraction speed 3.4 X
     Track quality 100.0 %
     Test CRC B7EF23F8
     Copy CRC B7EF23F8
     Track not present in AccurateRip database
     Copy OK
Track 10
     Filename E:\Nafta Releases\Rúzsa Magdolna - Dalok húrokra és fúvósokra (2CD+DVD 2014)[FLAC+DVD] - Naftamusic\CD 1\10 - Na-Na-Na.wav
     Peak level 96.6 %
     Extraction speed 3.3 X
     Track quality 100.0 %
     Test CRC 6D6A43DD
     Copy CRC 6D6A43DD
     Track not present in AccurateRip database
     Copy OK
Track 11
     Filename E:\Nafta Releases\Rúzsa Magdolna - Dalok húrokra és fúvósokra (2CD+DVD 2014)[FLAC+DVD] - Naftamusic\CD 1\11 - Besame Mucho.wav
     Peak level 94.3 %
     Extraction speed 3.6 X
     Track quality 100.0 %
     Test CRC B153087E
     Copy CRC B153087E
     Track not present in AccurateRip database
     Copy OK
Track 12
     Filename E:\Nafta Releases\Rúzsa Magdolna - Dalok húrokra és fúvósokra (2CD+DVD 2014)[FLAC+DVD] - Naftamusic\CD 1\12 - Jó reggelt boldogság.wav
     Peak level 96.5 %
     Extraction speed 3.7 X
     Track quality 100.0 %
     Test CRC 93D0E8B2
     Copy CRC 93D0E8B2
     Track not present in AccurateRip database
     Copy OK
None of the tracks are present in the AccurateRip database
No errors occurred
End of status report
==== Log checksum 101F84F3AF15891002F2D18D804BD4D9B41AB3D5DD7FE3A58FF8474AA4C754C2 ====
Код:
REM GENRE Pop
REM DATE 2014
REM DISCID A40C1A0C
REM COMMENT "ExactAudioCopy v1.0b3"
PERFORMER "Rúzsa Magdolna"
TITLE "Dalok húrokra és fúvósokra"
FILE "01 - Nevetni magadon.wav" WAVE
  TRACK 01 AUDIO
    TITLE "Nevetni magadon"
    PERFORMER "Rúzsa Magdolna"
    INDEX 01 00:00:00
FILE "02 - Gabriel.wav" WAVE
  TRACK 02 AUDIO
    TITLE "Gabriel"
    PERFORMER "Rúzsa Magdolna"
    INDEX 01 00:00:00
FILE "03 - Csak a bolond remél.wav" WAVE
  TRACK 03 AUDIO
    TITLE "Csak a bolond remél"
    PERFORMER "Rúzsa Magdolna"
    INDEX 01 00:00:00
FILE "04 - Fogd be és táncolj.wav" WAVE
  TRACK 04 AUDIO
    TITLE "Fogd be és táncolj"
    PERFORMER "Rúzsa Magdolna"
    INDEX 01 00:00:00
FILE "05 - Tárd ki a szíved.wav" WAVE
  TRACK 05 AUDIO
    TITLE "Tárd ki a szíved"
    PERFORMER "Rúzsa Magdolna"
    INDEX 01 00:00:00
FILE "06 - Egyszer.wav" WAVE
  TRACK 06 AUDIO
    TITLE "Egyszer"
    PERFORMER "Rúzsa Magdolna"
    INDEX 01 00:00:00
FILE "07 - Boldogság van.wav" WAVE
  TRACK 07 AUDIO
    TITLE "Boldogság van"
    PERFORMER "Rúzsa Magdolna"
    INDEX 01 00:00:00
FILE "08 - Cadillac.wav" WAVE
  TRACK 08 AUDIO
    TITLE "Cadillac"
    PERFORMER "Rúzsa Magdolna"
    INDEX 01 00:00:00
FILE "09 - Bolondok hajója.wav" WAVE
  TRACK 09 AUDIO
    TITLE "Bolondok hajója"
    PERFORMER "Rúzsa Magdolna"
    INDEX 01 00:00:00
FILE "10 - Na-Na-Na.wav" WAVE
  TRACK 10 AUDIO
    TITLE "Na-Na-Na"
    PERFORMER "Rúzsa Magdolna"
    INDEX 01 00:00:00
FILE "11 - Besame Mucho.wav" WAVE
  TRACK 11 AUDIO
    TITLE "Besame Mucho"
    PERFORMER "Rúzsa Magdolna"
    INDEX 01 00:00:00
FILE "12 - Jó reggelt boldogság.wav" WAVE
  TRACK 12 AUDIO
    TITLE "Jó reggelt boldogság"
    PERFORMER "Rúzsa Magdolna"
    INDEX 01 00:00:00
Код:
[url=https://fastpic.ru/view/107/2018/1218/5633a266cbef11098dffe527ab53f223.png.html][img]https://i107.fastpic.ru/thumb/2018/1218/23/5633a266cbef11098dffe527ab53f223.jpeg[/img][/url]
Код:
foobar2000 1.2.2 / Dynamic Range Meter 1.1.1
log date: 2014-12-01 23:23:05
--------------------------------------------------------------------------------
Analyzed: Rúzsa Magdolna / Dalok húrokra és fúvósokra
--------------------------------------------------------------------------------
DR         Peak         RMS     Duration Track
--------------------------------------------------------------------------------
DR8       -0.30 dB   -11.52 dB      3:59 01-Nevetni magadon
DR11      -0.32 dB   -12.59 dB      3:58 02-Gabriel
DR9       -0.31 dB   -12.42 dB      3:52 03-Csak a bolond remél
DR8       -0.30 dB   -10.75 dB      3:55 04-Fogd be és táncolj
DR10      -0.30 dB   -12.73 dB      4:30 05-Tárd ki a szíved
DR13      -2.22 dB   -18.57 dB      3:57 06-Egyszer
DR13      -2.03 dB   -18.45 dB      4:49 07-Boldogság van
DR9       -0.30 dB   -11.49 dB      3:08 08-Cadillac
DR9       -0.30 dB   -12.41 dB      6:38 09-Bolondok hajója
DR10      -0.30 dB   -12.02 dB      3:51 10-Na-Na-Na
DR11      -0.51 dB   -14.15 dB      4:38 11-Besame Mucho
DR11      -0.30 dB   -14.52 dB      4:23 12-Jó reggelt boldogság
--------------------------------------------------------------------------------
Number of tracks:  12
Official DR value: DR10
Samplerate:        44100 Hz
Channels:          2
Bits per sample:   16
Bitrate:           911 kbps
Codec:             FLAC
================================================================================
TRACKLIST:
01 - Aprócska blues (00:03:27)
02 - I Want To Hold Your Hand (00:03:46)
03 - Bűnbe estem (00:04:01)
04 - Két perc (00:04:48)
05 - Rövid utazás (00:03:58)
06 - Szerelem (00:04:29)
07 - Indián (00:04:16)
08 - Szabadulj el (00:04:39)
09 - Elindultam szép hazámból (00:02:29)
10 - Volt nékem szeretőm (Nikola Parov feldolgozás) (00:02:08)
11 - Vigyázz a madárra (00:04:49)
12 - Highway To Hell (00:04:59)
Код:
Exact Audio Copy V1.0 beta 3 from 29. August 2011
EAC extraction logfile from 2. December 2014, 0:19
Rúzsa Magdolna / Dalok húrokra és fúvósokra
Used drive  : PLEXTOR DVDR   PX-891SA   Adapter: 1  ID: 0
Read mode               : Secure
Utilize accurate stream : Yes
Defeat audio cache      : Yes
Make use of C2 pointers : No
Read offset correction                      : 6
Overread into Lead-In and Lead-Out          : No
Fill up missing offset samples with silence : Yes
Delete leading and trailing silent blocks   : No
Null samples used in CRC calculations       : Yes
Used interface                              : Native Win32 interface for Win NT & 2000
Gap handling                                : Appended to previous track
Used output format              : User Defined Encoder
Selected bitrate                : 1024 kBit/s
Quality                         : High
Add ID3 tag                     : No
Command line compressor         : C:\Program Files (x86)\Exact Audio Copy\FLAC\FLAC.EXE
Additional command line options : -0 -V -T "ARTIST=%artist%" -T "TITLE=%title%" -T "ALBUM=%albumtitle%" -T "DATE=%year%" -T "TRACKNUMBER=%tracknr%" -T "TOTALTRACKS=%numtracks%" -T "GENRE=%genre%" -T "COMMENT=Naftamusic Release!" %source%
TOC of the extracted CD
     Track |   Start  |  Length  | Start sector | End sector
    ---------------------------------------------------------
        1  |  0:00.00 |  3:27.26 |         0    |    15550
        2  |  3:27.26 |  3:45.67 |     15551    |    32492
        3  |  7:13.18 |  4:01.25 |     32493    |    50592
        4  | 11:14.43 |  4:48.23 |     50593    |    72215
        5  | 16:02.66 |  3:57.71 |     72216    |    90061
        6  | 20:00.62 |  4:28.73 |     90062    |   110234
        7  | 24:29.60 |  4:16.04 |    110235    |   129438
        8  | 28:45.64 |  4:39.11 |    129439    |   150374
        9  | 33:25.00 |  2:28.53 |    150375    |   161527
       10  | 35:53.53 |  2:07.60 |    161528    |   171112
       11  | 38:01.38 |  4:48.42 |    171113    |   192754
       12  | 42:50.05 |  4:59.34 |    192755    |   215213
Track  1
     Filename E:\Nafta Releases\Rúzsa Magdolna - Dalok húrokra és fúvósokra (2CD+DVD 2014)[FLAC+DVD] - Naftamusic\CD 2\01 - Aprócska blues.wav
     Pre-gap length  0:00:02.00
     Peak level 96.4 %
     Extraction speed 1.8 X
     Track quality 100.0 %
     Test CRC 719B8E4A
     Copy CRC 719B8E4A
     Track not present in AccurateRip database
     Copy OK
Track  2
     Filename E:\Nafta Releases\Rúzsa Magdolna - Dalok húrokra és fúvósokra (2CD+DVD 2014)[FLAC+DVD] - Naftamusic\CD 2\02 - I Want To Hold Your Hand.wav
     Peak level 96.4 %
     Extraction speed 2.0 X
     Track quality 100.0 %
     Test CRC EA2F90EE
     Copy CRC EA2F90EE
     Track not present in AccurateRip database
     Copy OK
Track  3
     Filename E:\Nafta Releases\Rúzsa Magdolna - Dalok húrokra és fúvósokra (2CD+DVD 2014)[FLAC+DVD] - Naftamusic\CD 2\03 - Bűnbe estem.wav
     Peak level 96.5 %
     Extraction speed 1.6 X
     Track quality 99.9 %
     Test CRC 7BF24AD0
     Copy CRC 7BF24AD0
     Track not present in AccurateRip database
     Copy OK
Track  4
     Filename E:\Nafta Releases\Rúzsa Magdolna - Dalok húrokra és fúvósokra (2CD+DVD 2014)[FLAC+DVD] - Naftamusic\CD 2\04 - Két perc.wav
     Peak level 96.6 %
     Extraction speed 2.5 X
     Track quality 100.0 %
     Test CRC AA287B01
     Copy CRC AA287B01
     Track not present in AccurateRip database
     Copy OK
Track  5
     Filename E:\Nafta Releases\Rúzsa Magdolna - Dalok húrokra és fúvósokra (2CD+DVD 2014)[FLAC+DVD] - Naftamusic\CD 2\05 - Rövid utazás.wav
     Peak level 96.6 %
     Extraction speed 2.6 X
     Track quality 100.0 %
     Test CRC 22D274EB
     Copy CRC 22D274EB
     Track not present in AccurateRip database
     Copy OK
Track  6
     Filename E:\Nafta Releases\Rúzsa Magdolna - Dalok húrokra és fúvósokra (2CD+DVD 2014)[FLAC+DVD] - Naftamusic\CD 2\06 - Szerelem.wav
     Peak level 96.4 %
     Extraction speed 2.8 X
     Track quality 100.0 %
     Test CRC D4AFE24E
     Copy CRC D4AFE24E
     Track not present in AccurateRip database
     Copy OK
Track  7
     Filename E:\Nafta Releases\Rúzsa Magdolna - Dalok húrokra és fúvósokra (2CD+DVD 2014)[FLAC+DVD] - Naftamusic\CD 2\07 - Indián.wav
     Peak level 96.6 %
     Extraction speed 2.9 X
     Track quality 100.0 %
     Test CRC 744AB681
     Copy CRC 744AB681
     Track not present in AccurateRip database
     Copy OK
Track  8
     Filename E:\Nafta Releases\Rúzsa Magdolna - Dalok húrokra és fúvósokra (2CD+DVD 2014)[FLAC+DVD] - Naftamusic\CD 2\08 - Szabadulj el.wav
     Peak level 96.6 %
     Extraction speed 3.1 X
     Track quality 100.0 %
     Test CRC B8DF9104
     Copy CRC B8DF9104
     Track not present in AccurateRip database
     Copy OK
Track  9
     Filename E:\Nafta Releases\Rúzsa Magdolna - Dalok húrokra és fúvósokra (2CD+DVD 2014)[FLAC+DVD] - Naftamusic\CD 2\09 - Elindultam szép hazámból.wav
     Peak level 41.0 %
     Extraction speed 1.9 X
     Track quality 99.9 %
     Test CRC 7D11FDBB
     Copy CRC 7D11FDBB
     Track not present in AccurateRip database
     Copy OK
Track 10
     Filename E:\Nafta Releases\Rúzsa Magdolna - Dalok húrokra és fúvósokra (2CD+DVD 2014)[FLAC+DVD] - Naftamusic\CD 2\10 - Volt nékem szeretőm (Nikola Parov feldolgozás).wav
     Peak level 60.4 %
     Extraction speed 1.8 X
     Track quality 99.9 %
     Test CRC BD621954
     Copy CRC BD621954
     Track not present in AccurateRip database
     Copy OK
Track 11
     Filename E:\Nafta Releases\Rúzsa Magdolna - Dalok húrokra és fúvósokra (2CD+DVD 2014)[FLAC+DVD] - Naftamusic\CD 2\11 - Vigyázz a madárra.wav
     Peak level 96.6 %
     Extraction speed 3.4 X
     Track quality 100.0 %
     Test CRC D408C083
     Copy CRC D408C083
     Track not present in AccurateRip database
     Copy OK
Track 12
     Filename E:\Nafta Releases\Rúzsa Magdolna - Dalok húrokra és fúvósokra (2CD+DVD 2014)[FLAC+DVD] - Naftamusic\CD 2\12 - Highway To Hell.wav
     Peak level 96.6 %
     Extraction speed 2.7 X
     Track quality 99.9 %
     Test CRC D407D7E0
     Copy CRC D407D7E0
     Track not present in AccurateRip database
     Copy OK
None of the tracks are present in the AccurateRip database
No errors occurred
End of status report
==== Log checksum 48C99A7092426D880327FC5B6F87101D3E0C349F9DCB3B3ACFF92165940D638C ====
Код:
REM GENRE Pop
REM DATE 2014
REM DISCID 970B350C
REM COMMENT "ExactAudioCopy v1.0b3"
PERFORMER "Rúzsa Magdolna"
TITLE "Dalok húrokra és fúvósokra"
FILE "01 - Aprócska blues.wav" WAVE
  TRACK 01 AUDIO
    TITLE "Aprócska blues"
    PERFORMER "Rúzsa Magdolna"
    INDEX 01 00:00:00
FILE "02 - I Want To Hold Your Hand.wav" WAVE
  TRACK 02 AUDIO
    TITLE "I Want To Hold Your Hand"
    PERFORMER "Rúzsa Magdolna"
    INDEX 01 00:00:00
FILE "03 - Bűnbe estem.wav" WAVE
  TRACK 03 AUDIO
    TITLE "Bűnbe estem"
    PERFORMER "Rúzsa Magdolna"
    INDEX 01 00:00:00
FILE "04 - Két perc.wav" WAVE
  TRACK 04 AUDIO
    TITLE "Két perc"
    PERFORMER "Rúzsa Magdolna"
    INDEX 01 00:00:00
FILE "05 - Rövid utazás.wav" WAVE
  TRACK 05 AUDIO
    TITLE "Rövid utazás"
    PERFORMER "Rúzsa Magdolna"
    INDEX 01 00:00:00
FILE "06 - Szerelem.wav" WAVE
  TRACK 06 AUDIO
    TITLE "Szerelem"
    PERFORMER "Rúzsa Magdolna"
    INDEX 01 00:00:00
FILE "07 - Indián.wav" WAVE
  TRACK 07 AUDIO
    TITLE "Indián"
    PERFORMER "Rúzsa Magdolna"
    INDEX 01 00:00:00
FILE "08 - Szabadulj el.wav" WAVE
  TRACK 08 AUDIO
    TITLE "Szabadulj el"
    PERFORMER "Rúzsa Magdolna"
    INDEX 01 00:00:00
FILE "09 - Elindultam szép hazámból.wav" WAVE
  TRACK 09 AUDIO
    TITLE "Elindultam szép hazámból"
    PERFORMER "Rúzsa Magdolna"
    INDEX 01 00:00:00
FILE "10 - Volt nékem szeretőm (Nikola Parov feldolgozás).wav" WAVE
  TRACK 10 AUDIO
    TITLE "Volt nékem szeretőm (Nikola Parov feldolgozás)"
    PERFORMER "Rúzsa Magdolna"
    INDEX 01 00:00:00
FILE "11 - Vigyázz a madárra.wav" WAVE
  TRACK 11 AUDIO
    TITLE "Vigyázz a madárra"
    PERFORMER "Rúzsa Magdolna"
    INDEX 01 00:00:00
FILE "12 - Highway To Hell.wav" WAVE
  TRACK 12 AUDIO
    TITLE "Highway To Hell"
    PERFORMER "Rúzsa Magdolna"
    INDEX 01 00:00:00
Код:
[url=https://fastpic.ru/view/106/2018/1218/edd8884d96afdabc46c2fb06a0f4af01.png.html][img]https://i106.fastpic.ru/thumb/2018/1218/01/edd8884d96afdabc46c2fb06a0f4af01.jpeg[/img][/url]
Код:
foobar2000 1.2.2 / Dynamic Range Meter 1.1.1
log date: 2014-12-02 00:26:54
--------------------------------------------------------------------------------
Analyzed: Rúzsa Magdolna / Dalok húrokra és fúvósokra
--------------------------------------------------------------------------------
DR         Peak         RMS     Duration Track
--------------------------------------------------------------------------------
DR10      -0.32 dB   -13.29 dB      3:27 01-Aprócska blues
DR10      -0.31 dB   -15.49 dB      3:46 02-I Want To Hold Your Hand
DR10      -0.30 dB   -12.54 dB      4:01 03-Bűnbe estem
DR9       -0.30 dB   -10.99 dB      4:48 04-Két perc
DR9       -0.30 dB   -12.26 dB      3:58 05-Rövid utazás
DR10      -0.31 dB   -12.42 dB      4:29 06-Szerelem
DR9       -0.30 dB   -11.21 dB      4:16 07-Indián
DR8       -0.30 dB   -11.11 dB      4:39 08-Szabadulj el
DR13      -7.74 dB   -25.10 dB      2:29 09-Elindultam szép hazámból
DR12      -4.38 dB   -20.70 dB      2:08 10-Volt nékem szeretőm (Nikola Parov feldolgozás)
DR10      -0.30 dB   -13.58 dB      4:49 11-Vigyázz a madárra
DR6       -0.30 dB    -9.26 dB      4:59 12-Highway To Hell
--------------------------------------------------------------------------------
Number of tracks:  12
Official DR value: DR10
Samplerate:        44100 Hz
Channels:          2
Bits per sample:   16
Bitrate:           1117 kbps
Codec:             FLAC
================================================================================
gitár, vokál: Madarász Gábor
gitár, vokál: Sántha Gábor
basszusgitár, vokál: Kovács Barnabás
zongora, vokál: Závodi Gábor
dob: Hoffer Péter
ütőhangszerek: Czibere József
karmester, trombita, szárnykürt: Fekete Kovács Kornél
koncert mester: Bujtor Balázs
hegedű: Kovács Erika, Kanyurszky Péter, Lélek Réka, Ősz Aletta, Holló Judit, Kovács Ildikó, Pados Krisztina, Rácz Katalin
brácsa: Winkler Zsófia, Györke Zsuzsanna, Kallai Mira,
cselló: Gál Béla, Papp Györgyi,
nagybőgő: Földvári Balázs,
fuvola: Kiss Beáta,
fagott: Fehér Balázs
szopránszaxofon, altszaxofon, klarinét: Bacsó Kristóf
tenorszaxofon, fuvola, klarinét: Cserta Balázs
Из эксклюзивного саундтрека с двойным CD и DVD, мы снова сможем насладиться отмеченным наградами концертом Магди во Дворце искусств в конце 2013 года.
18 ноября 2013 года Ружа Магди выступил с концертом во Дворце искусств. Билеты были распроданы несколько недель назад и два месяца назад.
Магди снова сделала этот замечательный и незабываемый концерт. Ему помогала эта хорошо известная рок-группа, которая иногда расширялась за счет участников Kornél Fekete-Kovács и Balázs Bujtor.
Струны и ветры сопровождали песни, транскрибированные непосредственно по этому случаю. Особенно собственные песни Магди, к которым мы привыкли в рок-инструментах на оригинальных музыкальных инструментах, дополненные некоторыми песнями, которые мы до сих пор редко или никогда не слышали о Магди.
Песни, настроенные Корнелем Фекете-Ковачем, приобрели особый колорит, который сочетался с праздничной атмосферой Дворца искусств, зрелищем Кентаура и красотой творчества дизайнера Рузы Магди. В этой среде искренние мысли и чувства, переданные Магди через песни, пришли к аудитории.
На сцене мы увидели симпатичную, скромную девушку, которая, видимо, делала то, что ей нравилось и нравилось

From an exclusive soundtrack featuring double CD and DVD, we can once again experience Magdi's award-winning concert at the Palace of Arts at the end of 2013.
On November 18, 2013, Rúzsa Magdi made a concert at the Palace of Arts. The tickets were sold out weeks ago and two months ago.
Magdi made this great and unforgettable concert again. He had the help of this well-acclaimed rock band, which was occasionally expanded with members of Kornél Fekete-Kovács and Balázs Bujtor.
Strings and winds accompanied the songs transcribed directly for this occasion. Especially Magdi's own songs, which we have been accustomed to in rock instrumentation in original musical instruments, complemented by some of the songs we rarely or have never heard of Magdi so far.
The songs tuned by Kornél Fekete-Kovács got a special flavor, which was combined with the festive atmosphere of the Palace of Arts, the spectacle of Kentaur, and the beauty of Rúzsa Magdi's fashion designer's creation. In this environment, the sincere thoughts and feelings transmitted by Magdi through the songs came to the audience.
On the stage we saw a pretty, modest girl who apparently did what she liked and loved.

A dupla CD és DVD-ből álló exkluzív hanghordozón újra átélhetjük Magdi nagysikerű, Művészetek Palotájában adott 2013. év végi koncertjét.
2013. november 18-án Rúzsa Magdi koncertezett a Művészetek Palotájában. A dupla teltházas koncertre már hetekkel, hónapokkal korábban elkeltek a jegyek.
Magdi ezzel a koncerttel újból nagyot és felejthetetlent alkotott. Segítségére volt ebben a már jól megszokott rockzenekara, mely alkalmilag kibővült Fekete-Kovács Kornél és Bujtor Balázs zenekarainak tagjaival.
Vonósok és fúvósok kísérték a direkt erre az alkalomra áthangszerelt dalokat. Főként Magdi saját dalait, melyeket eredeti hangszerelésben a rock koncerteken már megszokhattunk, kiegészítve néhány olyan dallal, amit csak ritkán, vagy eddig még soha nem hallhattunk Magditól.
A Fekete-Kovács Kornél által áthangszerelt dalok egy különleges ízt kaptak, ami ötvöződött a Művészetek Palotája ünnepi hangulatával, a Kentaur által megálmodott színpadkép látványával, és Rúzsa Magdi divattervező kreációjának gyönyörűségével. Ebben a környezetben a Magdi által, a dalokon keresztül közvetített őszinte gondolatok és érzések fokozottan jutottak el a közönséghez.
A színpadon egy meghatott, szerény lányt láttunk, aki láthatóan azt csinálja, amit szeret, és amiért szeretik.
Правила, инструкции, FAQ!!!
Торрент  Добавлен [26 мар 2019, 20:02] Скачать торрент Магнет ссылка
Скачать торрент
[ Размер 17.75 КБ / Просмотров 2 ]

Статус
Проверен 
 
Размер  749.81 МБ
Приватный: Нет (DHT включён)
.torrent скачан  0
 


     Отправить личное сообщение
   
Страница 1 из 1
Показать сообщения за:  Поле сортировки  
Начать новую тему Ответить на тему


Сейчас этот форум просматривают: нет зарегистрированных пользователей и гости: 0


Вы не можете начинать темы
Вы не можете отвечать на сообщения
Вы не можете редактировать свои сообщения
Вы не можете удалять свои сообщения
Вы не можете добавлять вложения

Перейти:  
cron