Начать новую тему Ответить на тему
Статистика раздачи
Размер: 329.59 МБ | Добавлен: 26 мар 2019, 19:46 | Скачали: 0
Сидеров: 0  [0 байт/сек]    Личеров: 0  [0 байт/сек]
Пред. тема | След. тема 

Автор
Сообщение

СообщениеДобавлено: 26 мар 2019, 19:46 

Ответить с цитатой 

Zorán / Elszeretett dalok
(2016)

Жанр: Pop/Rock
Носитель: CD
Страна-производитель диска (релиза): Hungary
Год издания: 2016
Издатель (лейбл): Universal Music
Номер по каталогу: 9789631254044
Страна исполнителя (группы): Hungary
Аудиокодек: FLAC (*.flac)
Тип рипа: tracks+.cue
Битрейт аудио: lossless
Продолжительность: 00:45:55
Источник (релизер): Naftamusic
Наличие сканов в содержимом раздачи: да
Корректность рипа: В оригинале не было применено сжатие при конвертировании во Флак (FLAC Level 0). Для приведения в соответствие правилам пережато во FLAC Level 5 с сохранением тэгов

01 - Szép holnap (unplugged verzió) (00:04:56)
02 - True Love (duett Auth Csillával angol nyelven 1994) (00:03:32)
03 - A körben (az eredeti stúdió felvétel 2004) (00:04:34)
04 - Que reste-t-il de nos amours (duett Hegyi Barbarával francia nyelven, kiadatlan felvétel) (00:04:00)
05 - Volt egy tánc (unplugged verzió) (00:06:16)
06 - Morning Has Broken (angol nyelven, kiadatlan felvétel) (00:03:27)
07 - A nő (az eredeti stúdió felvétel 2004) (00:03:17)
08 - Üres bölcsőt ringat a Hold fénye (az eredeti stúdió felvétel 2004) (00:03:53)
09 - Kell ott fenn egy ország (az eredeti stúdió felvétel 1994) (00:05:54)
10 - Záróra (az eredeti stúdió felvétel 2004) (00:06:06)
Код:
Exact Audio Copy V1.1 from 23. June 2015
EAC extraction logfile from 16. May 2016, 15:13
Zorán / Elszeretett dalok
Used drive  : PLEXTOR DVDR   PX-891SA   Adapter: 1  ID: 1
Read mode               : Secure
Utilize accurate stream : Yes
Defeat audio cache      : Yes
Make use of C2 pointers : No
Read offset correction                      : 6
Overread into Lead-In and Lead-Out          : No
Fill up missing offset samples with silence : Yes
Delete leading and trailing silent blocks   : No
Null samples used in CRC calculations       : Yes
Used interface                              : Native Win32 interface for Win NT & 2000
Gap handling                                : Appended to previous track
Used output format              : User Defined Encoder
Selected bitrate                : 1024 kBit/s
Quality                         : High
Add ID3 tag                     : No
Command line compressor         : C:\Program Files (x86)\Exact Audio Copy\Flac\flac.exe
Additional command line options : -0 -V -T "ARTIST=%artist%" -T "TITLE=%title%" -T "ALBUM=%albumtitle%" -T "DATE=%year%" -T "TRACKNUMBER=%tracknr%" -T "TOTALTRACKS=%numtracks%" -T "GENRE=%genre%" -T "COMMENT=Naftamusic Release!" %source%
TOC of the extracted CD
     Track |   Start  |  Length  | Start sector | End sector
    ---------------------------------------------------------
        1  |  0:00.00 |  4:56.00 |         0    |    22199
        2  |  4:56.00 |  3:32.00 |     22200    |    38099
        3  |  8:28.00 |  4:34.00 |     38100    |    58649
        4  | 13:02.00 |  3:59.52 |     58650    |    76626
        5  | 17:01.52 |  6:16.22 |     76627    |   104848
        6  | 23:17.74 |  3:27.00 |    104849    |   120373
        7  | 26:44.74 |  3:17.00 |    120374    |   135148
        8  | 30:01.74 |  3:53.00 |    135149    |   152623
        9  | 33:54.74 |  5:54.00 |    152624    |   179173
       10  | 39:48.74 |  6:05.73 |    179174    |   206621
Track  1
     Filename E:\Nafta Releases\Zorán - Elszeretett dalok (2016)[FLAC]-Naftamusic\01 - Szép holnap (unplugged verzió).wav
     Pre-gap length  0:00:02.00
     Peak level 89.1 %
     Extraction speed 1.9 X
     Track quality 100.0 %
     Test CRC 6C685176
     Copy CRC 6C685176
     Track not present in AccurateRip database
     Copy OK
Track  2
     Filename E:\Nafta Releases\Zorán - Elszeretett dalok (2016)[FLAC]-Naftamusic\02 - True Love (duett Auth Csillával angol nyelven 1994).wav
     Peak level 89.1 %
     Extraction speed 2.1 X
     Track quality 100.0 %
     Test CRC DF186822
     Copy CRC DF186822
     Track not present in AccurateRip database
     Copy OK
Track  3
     Filename E:\Nafta Releases\Zorán - Elszeretett dalok (2016)[FLAC]-Naftamusic\03 - A körben (az eredeti stúdió felvétel 2004).wav
     Peak level 89.1 %
     Extraction speed 2.3 X
     Track quality 100.0 %
     Test CRC 6BDB7F0E
     Copy CRC 6BDB7F0E
     Track not present in AccurateRip database
     Copy OK
Track  4
     Filename E:\Nafta Releases\Zorán - Elszeretett dalok (2016)[FLAC]-Naftamusic\04 - Que reste-t-il de nos amours (duett Hegyi Barbarával francia nyelven, kiadatlan felvétel).wav
     Peak level 89.1 %
     Extraction speed 1.8 X
     Track quality 99.9 %
     Test CRC F5757100
     Copy CRC F5757100
     Track not present in AccurateRip database
     Copy OK
Track  5
     Filename E:\Nafta Releases\Zorán - Elszeretett dalok (2016)[FLAC]-Naftamusic\05 - Volt egy tánc (unplugged verzió).wav
     Peak level 89.1 %
     Extraction speed 2.8 X
     Track quality 100.0 %
     Test CRC D63FD08C
     Copy CRC D63FD08C
     Track not present in AccurateRip database
     Copy OK
Track  6
     Filename E:\Nafta Releases\Zorán - Elszeretett dalok (2016)[FLAC]-Naftamusic\06 - Morning Has Broken (angol nyelven, kiadatlan felvétel).wav
     Peak level 89.1 %
     Extraction speed 2.8 X
     Track quality 100.0 %
     Test CRC 42F13E4D
     Copy CRC 42F13E4D
     Track not present in AccurateRip database
     Copy OK
Track  7
     Filename E:\Nafta Releases\Zorán - Elszeretett dalok (2016)[FLAC]-Naftamusic\07 - A nő (az eredeti stúdió felvétel 2004).wav
     Peak level 89.1 %
     Extraction speed 2.9 X
     Track quality 100.0 %
     Test CRC 1191E484
     Copy CRC 1191E484
     Track not present in AccurateRip database
     Copy OK
Track  8
     Filename E:\Nafta Releases\Zorán - Elszeretett dalok (2016)[FLAC]-Naftamusic\08 - Üres bölcsőt ringat a Hold fénye (az eredeti stúdió felvétel 2004).wav
     Peak level 89.1 %
     Extraction speed 3.1 X
     Track quality 100.0 %
     Test CRC 33020EE3
     Copy CRC 33020EE3
     Track not present in AccurateRip database
     Copy OK
Track  9
     Filename E:\Nafta Releases\Zorán - Elszeretett dalok (2016)[FLAC]-Naftamusic\09 - Kell ott fenn egy ország (az eredeti stúdió felvétel 1994).wav
     Peak level 89.1 %
     Extraction speed 3.4 X
     Track quality 100.0 %
     Test CRC B834FC91
     Copy CRC B834FC91
     Track not present in AccurateRip database
     Copy OK
Track 10
     Filename E:\Nafta Releases\Zorán - Elszeretett dalok (2016)[FLAC]-Naftamusic\10 - Záróra (az eredeti stúdió felvétel 2004).wav
     Peak level 89.1 %
     Extraction speed 3.5 X
     Track quality 100.0 %
     Test CRC E13D62AF
     Copy CRC E13D62AF
     Track not present in AccurateRip database
     Copy OK
None of the tracks are present in the AccurateRip database
No errors occurred
End of status report
==== Log checksum 583D82BA52315F5ACA8AE683C97F6ED4FE3DADE04FD6442AF45EFE1FA0B88F49 ====
Код:
REM GENRE "Pop, Ballad, Vocal"
REM DATE 2016
REM DISCID 7C0AC20A
REM COMMENT "ExactAudioCopy v1.1"
PERFORMER "Zorán"
TITLE "Elszeretett dalok"
FILE "01 - Szép holnap (unplugged verzió).wav" WAVE
  TRACK 01 AUDIO
    TITLE "Szép holnap (unplugged verzió)"
    PERFORMER "Zorán"
    INDEX 01 00:00:00
FILE "02 - True Love (duett Auth Csillával angol nyelven 1994).wav" WAVE
  TRACK 02 AUDIO
    TITLE "True Love (duett Auth Csillával angol nyelven 1994)"
    PERFORMER "Zorán"
    INDEX 01 00:00:00
FILE "03 - A körben (az eredeti stúdió felvétel 2004).wav" WAVE
  TRACK 03 AUDIO
    TITLE "A körben (az eredeti stúdió felvétel 2004)"
    PERFORMER "Zorán"
    INDEX 01 00:00:00
FILE "04 - Que reste-t-il de nos amours (duett Hegyi Barbarával francia nyelven, kiadatlan felvétel).wav" WAVE
  TRACK 04 AUDIO
    TITLE "Que reste-t-il de nos amours (duett Hegyi Barbarával francia nyelven, kiadatl..."
    PERFORMER "Zorán"
    INDEX 01 00:00:00
FILE "05 - Volt egy tánc (unplugged verzió).wav" WAVE
  TRACK 05 AUDIO
    TITLE "Volt egy tánc (unplugged verzió)"
    PERFORMER "Zorán"
    INDEX 01 00:00:00
FILE "06 - Morning Has Broken (angol nyelven, kiadatlan felvétel).wav" WAVE
  TRACK 06 AUDIO
    TITLE "Morning Has Broken (angol nyelven, kiadatlan felvétel)"
    PERFORMER "Zorán"
    INDEX 01 00:00:00
FILE "07 - A nő (az eredeti stúdió felvétel 2004).wav" WAVE
  TRACK 07 AUDIO
    TITLE "A nő (az eredeti stúdió felvétel 2004)"
    PERFORMER "Zorán"
    INDEX 01 00:00:00
FILE "08 - Üres bölcsőt ringat a Hold fénye (az eredeti stúdió felvétel 2004).wav" WAVE
  TRACK 08 AUDIO
    TITLE "Üres bölcsőt ringat a Hold fénye (az eredeti stúdió felvétel 2004)"
    PERFORMER "Zorán"
    INDEX 01 00:00:00
FILE "09 - Kell ott fenn egy ország (az eredeti stúdió felvétel 1994).wav" WAVE
  TRACK 09 AUDIO
    TITLE "Kell ott fenn egy ország (az eredeti stúdió felvétel 1994)"
    PERFORMER "Zorán"
    INDEX 01 00:00:00
FILE "10 - Záróra (az eredeti stúdió felvétel 2004).wav" WAVE
  TRACK 10 AUDIO
    TITLE "Záróra (az eredeti stúdió felvétel 2004)"
    PERFORMER "Zorán"
    INDEX 01 00:00:00
Код:
[url=https://fastpic.ru/view/98/2018/1112/d26a2861e44959f0e363cba9ce72414c.png.html][img]http://i98.fastpic.ru/thumb/2018/1112/4c/d26a2861e44959f0e363cba9ce72414c.jpeg[/img][/url]
Код:
[img]http://i97.fastpic.ru/big/2018/1112/d1/267c60439ece30c332cb91b8211cc9d1.png[/img]
foobar2000 1.2.2 / Dynamic Range Meter 1.1.1
log date: 2016-05-16 15:30:46
--------------------------------------------------------------------------------
Analyzed: Zorán / Elszeretett dalok
--------------------------------------------------------------------------------
DR         Peak         RMS     Duration Track
--------------------------------------------------------------------------------
DR8       -1.00 dB   -11.79 dB      4:56 01-Szép holnap (unplugged verzió)
DR9       -1.00 dB   -12.14 dB      3:32 02-True Love (duett Auth Csillával angol nyelven 1994)
DR8       -1.00 dB   -10.54 dB      4:34 03-A körben (az eredeti stúdió felvétel 2004)
DR10      -1.00 dB   -13.88 dB      4:00 04-Que reste-t-il de nos amours (duett Hegyi Barbarával francia nyelven, kiadatlan felvétel)
DR11      -1.00 dB   -13.78 dB      6:16 05-Volt egy tánc (unplugged verzió)
DR8       -1.00 dB   -12.07 dB      3:27 06-Morning Has Broken (angol nyelven, kiadatlan felvétel)
DR8       -1.00 dB   -10.98 dB      3:17 07-A nő (az eredeti stúdió felvétel 2004)
DR8       -1.00 dB   -10.96 dB      3:53 08-Üres bölcsőt ringat a Hold fénye (az eredeti stúdió felvétel 2004)
DR11      -1.00 dB   -15.28 dB      5:54 09-Kell ott fenn egy ország (az eredeti stúdió felvétel 1994)
DR10      -1.00 dB   -12.08 dB      6:06 10-Záróra (az eredeti stúdió felvétel 2004)
--------------------------------------------------------------------------------
Number of tracks:  10
Official DR value: DR9
Samplerate:        44100 Hz
Channels:          2
Bits per sample:   16
Bitrate:           1031 kbps
Codec:             FLAC
================================================================================
28-страничная книга с текстом Sztevanovity Dusán и оригинальными песнями и исполнителями + 10 компакт-дисков из 46 минут с фотографиями Ласло Пёрджера.
Возлюбленные песни - это не просто простая компиляция. Его уникальность обусловлена прежде всего тем фактом, что в пространстве автора и в некоторых случаях тоже есть песни, которые находятся далеко друг от друга. Двое из них еще не были выпущены на любой саундтрек, и три из десяти песен находятся на языке оригинала на английском и французском языках. Тексты других песен были написаны Душаном Штевановити, но это не просто переводы, а отдельные тексты ближе к художнику, некоторые из которых теперь стали культовым концертом.

28-page book with the lyrics of Sztevanovity Dusán and the original songs and performers + 10 CDs of 46 minutes with László Perger's photos.
The Beloved Songs are more than just a simple compilation. Its uniqueness is primarily due to the fact that there are songs that are far apart in the author's space - and in some cases too - of each other. Two of them have not yet been released on any soundtrack, and three of the ten songs are in the original language, in English and French. The lyrics of the other songs were written by Dusan Sztevanovity, but these are not simple translations, but stand-alone texts closer to the artist, some of which have now become an iconic piece of concerts.

28 oldalas könyv, Sztevanovity Dusán dalszövegeivel és az eredeti számok, előadók ismertetésével + 10 számos CD 46 perc összidővel, Perger László fotóival.
Az Elszeretett dalok több mint egy egyszerű válogatás. Egyediségét elsősorban az adja, hogy olyan dalok találhatók rajta, melyeknek szerzői térben – és némelyik időben is – távol esnek egymástól. Közülük két felvétel eddig még semmilyen hanghordozón nem jelent meg, a tíz dalból három pedig eredeti nyelven, angolul és franciául hangzik el. A többi dal magyar szövegét Sztevanovity Dusán írta, ám ezek nem egyszerű fordítások, hanem önálló, az előadóhoz közelebb álló szövegek, melyek némelyike mára már a koncertek ikonikus darabjává vált.
Правила, инструкции, FAQ!!!
Торрент  Добавлен [26 мар 2019, 19:46] Скачать торрент Магнет ссылка
Скачать торрент
[ Размер 15.35 КБ / Просмотров 0 ]

Статус
Проверен 
 
Размер  329.59 МБ
Приватный: Нет (DHT включён)
.torrent скачан  0
 


     Отправить личное сообщение
   
Страница 1 из 1
Показать сообщения за:  Поле сортировки  
Начать новую тему Ответить на тему


Сейчас этот форум просматривают: нет зарегистрированных пользователей и гости: 0


Вы не можете начинать темы
Вы не можете отвечать на сообщения
Вы не можете редактировать свои сообщения
Вы не можете удалять свои сообщения
Вы не можете добавлять вложения

Перейти:  
cron