Начать новую тему Ответить на тему
Статистика раздачи
Размер: 267.98 МБ | Добавлен: 26 мар 2019, 20:39 | Скачали: 0
Сидеров: 0  [0 байт/сек]    Личеров: 0  [0 байт/сек]
Пред. тема | След. тема 

Автор
Сообщение

СообщениеДобавлено: 26 мар 2019, 20:39 

Ответить с цитатой 

Wilki / Światło i mrok
Жанр: Pop-Rock
Страна-производитель диска: EU
Год издания: 2012
Издатель (лейбл): Sony Music Entertainment Poland
Номер по каталогу: 88725478772
Страна: Poland
Аудиокодек: FLAC (*.flac)
Тип рипа: tracks+.cue
Битрейт аудио: lossless
Продолжительность: 00:40:31
Источник (релизер): сеть
Наличие сканов в содержимом раздачи: да
Треклист:
01 - Światło i mrok
02 - Syriusz
03 - Czystego serca
04 - Pierwsze pióro
05 - Świat to fajne miejsce
06 - Miłości kwiat nieśmiały
07 - Srebrny pył
08 - Pieśń wieloryba
09 - Spłonąć i odejść
10 - Zwykła miłość
11 - Życie trwa
Код:
Exact Audio Copy V1.0 beta 3 from 29. August 2011
Sprawozdanie ze zgrywania programem EAC z 9. Listopada 2012, 16:52
Wilki / Swiatlo i Mrok
Użyty napęd: TSSTcorpCDDVDW SH-S203P   Adapter: 3  ID: 1
Tryb odczytu:               : Bezpieczny
Dokładny strumień           : Tak
Neutralizacja bufora napędu : Nie
Zwracanie błędów C2         : Nie
Korekta położenia dla odczytu                             : 6
Nadczytywanie w obszarach LeadIn i LeadOut                : Nie
Dopełnianie ciszą brakujących próbek                      : Tak
Usuwanie początkowych i końcowych bloków ciszy            : Nie
Do przeliczenia sumy kontrolnej CRC użyto próbek zerowych : Tak
Interfejs                                                 : Wewnętrzny interfejs Win32 dla Windows NT i 2000
Przerwy                                                   : Dodane do poprzedniego nagrania
Użyty format wyjściowy : Wewnętrzne procedury WAV
Format próbki          : 44.100 Hz; 16 bitów; stereo
TOC zgranej płyty
     Utwór | Początek |  Długość | Sektor początkowy | Sektor końcowy
    ------------------------------------------------------------------
        1  |  0:00.00 |  3:05.05 |           0       |      13879
        2  |  3:05.05 |  3:13.49 |       13880       |      28403
        3  |  6:18.54 |  4:24.35 |       28404       |      48238
        4  | 10:43.14 |  3:40.73 |       48239       |      64811
        5  | 14:24.12 |  6:30.37 |       64812       |      94098
        6  | 20:54.49 |  3:31.15 |       94099       |     109938
        7  | 24:25.64 |  3:02.28 |      109939       |     123616
        8  | 27:28.17 |  2:46.28 |      123617       |     136094
        9  | 30:14.45 |  3:22.70 |      136095       |     151314
       10  | 33:37.40 |  3:20.30 |      151315       |     166344
       11  | 36:57.70 |  3:32.60 |      166345       |     182304
Nagranie  1
     Ścieżka pliku L:\Wilki - Swiatlo i Mrok\01 Swiatlo i mrok.wav
     Długość przerwy  0:00:02.00
     Poziom wysterowania 98.0 %
     Szybkość zgrywania4.2 X
     Jakość nagrania 100.0 %
     CRC testowana 622CC415
     CRC kopii     622CC415
     Nagrania nie ma w bazie danych AccurateRip
     Kopia bezbłędna
Nagranie  2
     Ścieżka pliku L:\Wilki - Swiatlo i Mrok\02 Syriusz.wav
     Poziom wysterowania 98.0 %
     Szybkość zgrywania4.6 X
     Jakość nagrania 100.0 %
     CRC testowana 842F48BC
     CRC kopii     842F48BC
     Nagrania nie ma w bazie danych AccurateRip
     Kopia bezbłędna
Nagranie  3
     Ścieżka pliku L:\Wilki - Swiatlo i Mrok\03 Czystego serca.wav
     Poziom wysterowania 98.0 %
     Szybkość zgrywania5.0 X
     Jakość nagrania 100.0 %
     CRC testowana 71F93480
     CRC kopii     71F93480
     Nagrania nie ma w bazie danych AccurateRip
     Kopia bezbłędna
Nagranie  4
     Ścieżka pliku L:\Wilki - Swiatlo i Mrok\04 Pierwsze pioro.wav
     Poziom wysterowania 98.0 %
     Szybkość zgrywania5.4 X
     Jakość nagrania 100.0 %
     CRC testowana 868FB19B
     CRC kopii     868FB19B
     Nagrania nie ma w bazie danych AccurateRip
     Kopia bezbłędna
Nagranie  5
     Ścieżka pliku L:\Wilki - Swiatlo i Mrok\05 Swiat to fajne miejsce.wav
     Poziom wysterowania 98.0 %
     Szybkość zgrywania5.9 X
     Jakość nagrania 100.0 %
     CRC testowana 7F3C8FE5
     CRC kopii     7F3C8FE5
     Nagrania nie ma w bazie danych AccurateRip
     Kopia bezbłędna
Nagranie  6
     Ścieżka pliku L:\Wilki - Swiatlo i Mrok\06 Milosci kwiat niesmialy.wav
     Poziom wysterowania 98.0 %
     Szybkość zgrywania6.3 X
     Jakość nagrania 100.0 %
     CRC testowana 12386BD9
     CRC kopii     12386BD9
     Nagrania nie ma w bazie danych AccurateRip
     Kopia bezbłędna
Nagranie  7
     Ścieżka pliku L:\Wilki - Swiatlo i Mrok\07 Srebrny pyl.wav
     Poziom wysterowania 98.0 %
     Szybkość zgrywania6.6 X
     Jakość nagrania 100.0 %
     CRC testowana 7FEC512D
     CRC kopii     7FEC512D
     Nagrania nie ma w bazie danych AccurateRip
     Kopia bezbłędna
Nagranie  8
     Ścieżka pliku L:\Wilki - Swiatlo i Mrok\08 Piesn wieloryba.wav
     Poziom wysterowania 98.0 %
     Szybkość zgrywania6.8 X
     Jakość nagrania 100.0 %
     CRC testowana E02254EA
     CRC kopii     E02254EA
     Nagrania nie ma w bazie danych AccurateRip
     Kopia bezbłędna
Nagranie  9
     Ścieżka pliku L:\Wilki - Swiatlo i Mrok\09 Splonac i odejsc.wav
     Poziom wysterowania 98.0 %
     Szybkość zgrywania7.0 X
     Jakość nagrania 100.0 %
     CRC testowana 0B215982
     CRC kopii     0B215982
     Nagrania nie ma w bazie danych AccurateRip
     Kopia bezbłędna
Nagranie 10
     Ścieżka pliku L:\Wilki - Swiatlo i Mrok\10 Zwykla milosc.wav
     Poziom wysterowania 98.0 %
     Szybkość zgrywania7.2 X
     Jakość nagrania 100.0 %
     CRC testowana E41AD4FF
     CRC kopii     E41AD4FF
     Nagrania nie ma w bazie danych AccurateRip
     Kopia bezbłędna
Nagranie 11
     Ścieżka pliku L:\Wilki - Swiatlo i Mrok\11 Zycie trwa.wav
     Poziom wysterowania 98.0 %
     Szybkość zgrywania6.8 X
     Jakość nagrania 99.9 %
     CRC testowana 5B455D3F
     CRC kopii     5B455D3F
     Nagrania nie ma w bazie danych AccurateRip
     Kopia bezbłędna
Żadnego nagrania nie ma w bazie danych AccurateRip
Nie było błędów
Koniec raportu
Код:
REM GENRE Rock
REM DATE 2012
REM DISCID 96097E0B
REM COMMENT "ExactAudioCopy v1.0b3"
PERFORMER "Wilki"
TITLE "Swiatlo i Mrok"
FILE "01 Swiatlo i mrok.wav" WAVE
  TRACK 01 AUDIO
    TITLE "Swiatlo i mrok"
    PERFORMER "Wilki"
    INDEX 01 00:00:00
FILE "02 Syriusz.wav" WAVE
  TRACK 02 AUDIO
    TITLE "Syriusz"
    PERFORMER "Wilki"
    INDEX 01 00:00:00
FILE "03 Czystego serca.wav" WAVE
  TRACK 03 AUDIO
    TITLE "Czystego serca"
    PERFORMER "Wilki"
    INDEX 01 00:00:00
FILE "04 Pierwsze pioro.wav" WAVE
  TRACK 04 AUDIO
    TITLE "Pierwsze pioro"
    PERFORMER "Wilki"
    INDEX 01 00:00:00
FILE "05 Swiat to fajne miejsce.wav" WAVE
  TRACK 05 AUDIO
    TITLE "Swiat to fajne miejsce"
    PERFORMER "Wilki"
    INDEX 01 00:00:00
FILE "06 Milosci kwiat niesmialy.wav" WAVE
  TRACK 06 AUDIO
    TITLE "Milosci kwiat niesmialy"
    PERFORMER "Wilki"
    INDEX 01 00:00:00
FILE "07 Srebrny pyl.wav" WAVE
  TRACK 07 AUDIO
    TITLE "Srebrny pyl"
    PERFORMER "Wilki"
    INDEX 01 00:00:00
FILE "08 Piesn wieloryba.wav" WAVE
  TRACK 08 AUDIO
    TITLE "Piesn wieloryba"
    PERFORMER "Wilki"
    INDEX 01 00:00:00
FILE "09 Splonac i odejsc.wav" WAVE
  TRACK 09 AUDIO
    TITLE "Splonac i odejsc"
    PERFORMER "Wilki"
    INDEX 01 00:00:00
FILE "10 Zwykla milosc.wav" WAVE
  TRACK 10 AUDIO
    TITLE "Zwykla milosc"
    PERFORMER "Wilki"
    INDEX 01 00:00:00
FILE "11 Zycie trwa.wav" WAVE
  TRACK 11 AUDIO
    TITLE "Zycie trwa"
    PERFORMER "Wilki"
    INDEX 01 00:00:00
Правила, инструкции, FAQ!!!
Торрент  Добавлен [26 мар 2019, 20:39] Скачать торрент Магнет ссылка
Скачать торрент
[ Размер 11.96 КБ / Просмотров 2 ]

Статус
Проверен 
 
Размер  267.98 МБ
Приватный: Нет (DHT включён)
.torrent скачан  0
 


     Отправить личное сообщение
   
Страница 1 из 1
Показать сообщения за:  Поле сортировки  
Начать новую тему Ответить на тему


Сейчас этот форум просматривают: нет зарегистрированных пользователей и гости: 0


Вы не можете начинать темы
Вы не можете отвечать на сообщения
Вы не можете редактировать свои сообщения
Вы не можете удалять свои сообщения
Вы не можете добавлять вложения

Перейти:  
cron