Начать новую тему Ответить на тему
Статистика раздачи
Размер: 745.8 МБ | Добавлен: 26 мар 2019, 20:39 | Скачали: 0
Сидеров: 0  [0 байт/сек]    Личеров: 0  [0 байт/сек]
Пред. тема | След. тема 

Автор
Сообщение

СообщениеДобавлено: 26 мар 2019, 20:39 

Ответить с цитатой 

Wilki - Wilki (1992) & Przedmiescia (1994)
Жанр: Pop Rock, Alternative Rock
Страна-производитель дисков: Poland
Год издания дисков: 1992-1994
Издатель (лейбл): MJM Music PL
Номер по каталогу: MJM 122 & 191 CD
Страна: Poland
Аудио кодек: FLAC (*.flac)
Тип рипа: tracks+.cue & image+.cue
Битрейт аудио: lossless
Продолжительность: 64.14 & 48.09 min
Наличие сканов в содержимом раздачи: да
Official site
At Wikipedia
At youtube
Треклист:
Wilki - Wilki (1992)
1. "Eroll" 4:48
2. "Nic zamieszkują demony" 4:24
3. "Son of the Blue Sky" 4:01
4. "Amiranda" 3:43
5. "Rachela" 4:54
6. "Beniamin" 4:01
7. "Glorya" 3:49
8. "Aborygen" 3:56
9. "Eli lama sabachtani" 3:35
10. "Z ulicy Kamiennej" 4:01
11. "Uayo" 4:05
12. "Amiranda" (Abbey Mix) 2:05
13. "Glorya" (Abbey Mix) 3:43
14. "Beniamin" (Abbey Mix) 4:02
15. "Son of the Blue Sky" (Abbey Mix) 4:00
16. bez tytułu 4:09
Wilki - Przedmiescia (1994)
1. "Nie zabiję nocy" 4:22
2. "Crazy Summer" 3:28
3. "Moja Baby" 3:47
4. "Letnia piosenka dla Ciebie" 3:11
5. "Hiszpan" 2:02
6. "Ballada Emanuel" 5:30
7. "Jeden raz odwiedzamy świat" 3:27
8. "Cień w Dolinie Mgieł" 2:58
9. "Nasze przedmieścia" 4:00
10. "N'Avoie" 2:51
11. "Słońce moja wiara" 3:19
12. "Kiedy nie ma już nic (blues)" 4:53
13. "Indian Summer" 3:22
Wilki - Wilki (1992)
* Robert Gawliński – gitara akustyczna, gitara basowa, śpiew
* Mikis Cupas – gitara elektryczna
* Maciej Gładysz – gitara elektryczna
* Mariusz Mielczarek – saksofon
* Anja Orthodox – chórki /vocals/
* Michał Rollinger – instrumenty klawiszowe, chórki
* Marek Surzyn – perkusja
* Krzysztof Ścierański – gitara basowa
* Kostek Yoriadis – instrumenty klawiszowe
* Adam Żwirski – gitara basowa
Wilki - Przedmiescia (1994)
* Robert Gawliński - gitara akustyczna, przeszkadzajki, śpiew
* Mikis Cupas - gitara elektryczna
* Marek Chrzanowski - gitara basowa
* Marcin Szyszko - perkusja
* Kostek Joriadis - fortepian, organy Hammonda, syntezatory
* Robert Majewski - trąbka /trumpet/
* Zbyszek Bieniak - głosy
Рок сообщество Варшаве начало говорить o группе Wilki /Волки/ в начале 1991 года. После многочисленные изменени в составе группа включала Robert Gawlinski (ex - Madame , Opera, Made in Poland)(vocal), Michal Rollinger (klawisze), Adam Zwirski (bas) i Darek Nowak (perkusja). Но судьба распорядилась иначе ... В начале записи первого едноименного альбома - "Wilki" смерть унесла Adam Zwirski. Песня "Son Of The Blue Sky" была ему посвящена. Она стал первым и одним из самых известных хитов Волков.
В октябре и ноябре 1991, в студию Изабелин свой дебютный альбом "Волки"записали в составе: Robert Gawlinski (vocal), Marek Surzyn (perkusja), Krzysztof Scieranski (bas), Maciek Gladysz (gitary), Mikis Cupas (ex - Cytadela) (gitary), Michal Rollinger (klawisze), Ania Orthodox (wokale), Mariusz Mielcarek (saxofon), Kostek Joriadis (klawisze). В декабре, они дали двух коротких концертов. Их дебютный альбом поступил в продажу в 1992 году и сразу же принес группе известность и огромный успех. Они продали 200.000 экземпляров первого диска. Это был настоящий триумф! Практически каждая песня с этого LP стал хитом.
Пластинка получила многочисленные награды, концертные залы были заполнены до отказа. После записи в группе пришли новые музыканты, Marek "Bruno" Chrzanowski (bas), Marcin Szyszko (perkusja) oraz Andrzej Smolik (klawisze). Весной 1993 года группа вернулась в студии записать второго альбома, озаглавленный "Przedmiescia" /Пригород/, который укрепил позиции Волков на польском рынке. Во второй раз большинство песен долгое время пребывали в чартах. После впечатляющий коммерческий успех двух дисков команда удивила своих поклонников, записав альбома "Acoustic Rockus", т.е. акустический концерт, который состоялся в Варшаве, 8 сентября 1994 года, в клубе Аквариум. После выпуска альбома музыканты разошлись. В 1995 году Robert Gawlinski успешно начал сольную карьеру.
После шести лет, движимая комерции группа сново собралась. Они начали все заново - концертный тур, новый альбом, новые хиты, новые поклонники. И так продолжается и сегодня.
* Wilki (MJM Music, 1992)
* Przedmieścia (MJM Music, 1993)
* Live (Sony Music PL, 1993)
* Acousticus Rockus (MJM Music, 1994)
* Wilki i R. Gawliński - największe przeboje (Sony Music PL, 2000)
* 4 (Pomaton EMI, 2002)
* Watra (Pomaton EMI, 2004)
* Obrazki (Wilki Records Musc fro EMI, 2006)
Код:
Exact Audio Copy V0.99 prebeta 4 from 23. January 2008
Sprawozdanie ze zgrywania programem EAC z 29. Kwietnia 2009, 12:47
Wilki / Wilki
Uїyty napкd: TSSTcorpCDDVDW SH-S203P   Adapter: 1  ID: 0
Tryb odczytu:               : Bezpieczny
Dokіadny strumieс           : Tak
Neutralizacja bufora napкdu : Tak
Zwracanie bікdуw C2         : Nie
Korekta poіoїenia dla odczytu                                : 6
Nadczytywanie w obszarach LeadIn i LeadOut                   : Nie
Dopeіnianie cisz№ brakuj№cych prуbek                         : Tak
Usuwanie pocz№tkowych i koсcowych blokуw ciszy               : Nie
Do przeliczenia sumy kontrolnej CRC uїywane s№ prуbki zerowe : Nie
Interfejs                                                    : Wewnкtrzny interfejs Win32 dla Windows NT i 2000
Przerwy                                                      : Nie wykryte, zatem dodawane do poprzedniego nagrania
Uїyty format wyjњciowy : Wewnкtrzne procedury WAV
Format prуbki          : 44.100 Hz; 16 bitуw; stereo
TOC zgranej pіyty
     Utwуr | Pocz№tek |  Dіugoњж | Sektor pocz№tkowy | Sektor koсcowy
    ------------------------------------------------------------------
        1  |  0:00.43 |  4:47.50 |          43       |      21617
        2  |  4:48.18 |  4:24.20 |       21618       |      41437
        3  |  9:12.38 |  4:07.30 |       41438       |      59992
        4  | 13:19.68 |  3:42.35 |       59993       |      76677
        5  | 17:02.28 |  4:53.70 |       76678       |      98722
        6  | 21:56.23 |  4:00.65 |       98723       |     116787
        7  | 25:57.13 |  3:49.45 |      116788       |     134007
        8  | 29:46.58 |  3:55.65 |      134008       |     151697
        9  | 33:42.48 |  3:34.67 |      151698       |     167814
       10  | 37:17.40 |  4:07.05 |      167815       |     186344
       11  | 41:24.45 |  4:49.53 |      186345       |     208072
       12  | 46:14.23 |  2:05.20 |      208073       |     217467
       13  | 48:19.43 |  3:42.62 |      217468       |     234179
       14  | 52:02.30 |  4:01.60 |      234180       |     252314
       15  | 56:04.15 |  3:59.60 |      252315       |     270299
       16  | 60:04.00 |  4:09.50 |      270300       |     289024
Nagranie  1
     Њcieїka pliku M:\Wilki - Wilki.(1992)\01 - Eroll.wav
     Poziom wysterowania 100.0 %
     Jakoњж nagrania 100.0 %
     CRC testowana 69927EB4
     CRC kopii     69927EB4
     Zgrane akuratnie (wiarygodnoњж 2)  [CF0476D3]
     Kopia bezbікdna
Nagranie  2
     Њcieїka pliku M:\Wilki - Wilki.(1992)\02 - Nic zamieszkuj№ demony.wav
     Poziom wysterowania 100.0 %
     Jakoњж nagrania 100.0 %
     CRC testowana 20215AB4
     CRC kopii     20215AB4
     Zgrane akuratnie (wiarygodnoњж 2)  [5FE065CB]
     Kopia bezbікdna
Nagranie  3
     Њcieїka pliku M:\Wilki - Wilki.(1992)\03 - Son Of The Blue Sky.wav
     Poziom wysterowania 100.0 %
     Jakoњж nagrania 99.9 %
     CRC testowana 20F8A441
     CRC kopii     20F8A441
     Zgrane akuratnie (wiarygodnoњж 2)  [8714D0ED]
     Kopia bezbікdna
Nagranie  4
     Њcieїka pliku M:\Wilki - Wilki.(1992)\04 - Amiranda.wav
     Poziom wysterowania 100.0 %
     Jakoњж nagrania 99.9 %
     CRC testowana 72E902E4
     CRC kopii     72E902E4
     Zgrane akuratnie (wiarygodnoњж 2)  [D3766B90]
     Kopia bezbікdna
Nagranie  5
     Њcieїka pliku M:\Wilki - Wilki.(1992)\05 - Rachela.wav
     Poziom wysterowania 100.0 %
     Jakoњж nagrania 100.0 %
     CRC testowana 177EAB4B
     CRC kopii     177EAB4B
     Zgrane akuratnie (wiarygodnoњж 2)  [B1526B3B]
     Kopia bezbікdna
Nagranie  6
     Њcieїka pliku M:\Wilki - Wilki.(1992)\06 - Beniamin.wav
     Poziom wysterowania 100.0 %
     Jakoњж nagrania 100.0 %
     CRC testowana 5146C1E0
     CRC kopii     5146C1E0
     Zgrane akuratnie (wiarygodnoњж 2)  [EB93A86D]
     Kopia bezbікdna
Nagranie  7
     Њcieїka pliku M:\Wilki - Wilki.(1992)\07 - Glorya.wav
     Poziom wysterowania 100.0 %
     Jakoњж nagrania 100.0 %
     CRC testowana CCE2E915
     CRC kopii     CCE2E915
     Zgrane akuratnie (wiarygodnoњж 2)  [03007179]
     Kopia bezbікdna
Nagranie  8
     Њcieїka pliku M:\Wilki - Wilki.(1992)\08 - Aborygen.wav
     Poziom wysterowania 100.0 %
     Jakoњж nagrania 100.0 %
     CRC testowana 8B609D40
     CRC kopii     8B609D40
     Zgrane akuratnie (wiarygodnoњж 2)  [1668A073]
     Kopia bezbікdna
Nagranie  9
     Њcieїka pliku M:\Wilki - Wilki.(1992)\09 - Eli lama sabachtani.wav
     Poziom wysterowania 100.0 %
     Jakoњж nagrania 100.0 %
     CRC testowana 054EBA14
     CRC kopii     054EBA14
     Zgrane akuratnie (wiarygodnoњж 2)  [64E7AC16]
     Kopia bezbікdna
Nagranie 10
     Њcieїka pliku M:\Wilki - Wilki.(1992)\10 - Z ulicy Kamiennej.wav
     Poziom wysterowania 100.0 %
     Jakoњж nagrania 99.9 %
     CRC testowana 2207B1CF
     CRC kopii     2207B1CF
     Zgrane akuratnie (wiarygodnoњж 2)  [1867DE10]
     Kopia bezbікdna
Nagranie 11
     Њcieїka pliku M:\Wilki - Wilki.(1992)\11 - Uyao.wav
     Poziom wysterowania 100.0 %
     Jakoњж nagrania 100.0 %
     CRC testowana F175CC8C
     CRC kopii     F175CC8C
     Zgrane akuratnie (wiarygodnoњж 2)  [9649D55D]
     Kopia bezbікdna
Nagranie 12
     Њcieїka pliku M:\Wilki - Wilki.(1992)\12 - Wilki.wav
     Poziom wysterowania 12.2 %
     Jakoњж nagrania 100.0 %
     CRC testowana FDCD175B
     CRC kopii     FDCD175B
     Zgrane akuratnie (wiarygodnoњж 2)  [7F76923E]
     Kopia bezbікdna
Nagranie 13
     Њcieїka pliku M:\Wilki - Wilki.(1992)\13 - Amiranda (Abbey mix).wav
     Poziom wysterowania 100.0 %
     Jakoњж nagrania 99.9 %
     CRC testowana A0BC6F07
     CRC kopii     A0BC6F07
     Zgrane akuratnie (wiarygodnoњж 2)  [9FBCDDE5]
     Kopia bezbікdna
Nagranie 14
     Њcieїka pliku M:\Wilki - Wilki.(1992)\14 - Glorya (Abbey mix).wav
     Poziom wysterowania 100.0 %
     Jakoњж nagrania 100.0 %
     CRC testowana 51AA7541
     CRC kopii     51AA7541
     Zgrane akuratnie (wiarygodnoњж 2)  [ACB1BC5A]
     Kopia bezbікdna
Nagranie 15
     Њcieїka pliku M:\Wilki - Wilki.(1992)\15 - Beniamin (Abbey mix).wav
     Poziom wysterowania 100.0 %
     Jakoњж nagrania 100.0 %
     CRC testowana C184BF3D
     CRC kopii     C184BF3D
     Zgrane akuratnie (wiarygodnoњж 2)  [77F94FA4]
     Kopia bezbікdna
Nagranie 16
     Њcieїka pliku M:\Wilki - Wilki.(1992)\16 - Son Of The Blue Sky (Abbey mix).wav
     Poziom wysterowania 100.0 %
     Jakoњж nagrania 100.0 %
     CRC testowana 6BC0A670
     CRC kopii     6BC0A670
     Zgrane akuratnie (wiarygodnoњж 2)  [8C233E4F]
     Kopia bezbікdna
Wszystkie nagrania zostaіy zgrane akuratnie
Nie byіo bікdуw
Koniec raportu
___________________________________________________________________
Exact Audio Copy V0.99 prebeta 5 from 4. May 2009
Sprawozdanie ze zgrywania programem EAC z 6. Grudnia 2009, 11:18
Wilki / Przedmiescia
Uїyty napкd: TSSTcorpCDDVDW SH-S222L   Adapter: 0  ID: 1
Tryb odczytu:               : Bezpieczny
Dokіadny strumieс           : Tak
Neutralizacja bufora napкdu : Tak
Zwracanie bікdуw C2         : Nie
Korekta poіoїenia dla odczytu                                : 6
Nadczytywanie w obszarach LeadIn i LeadOut                   : Nie
Dopeіnianie cisz№ brakuj№cych prуbek                         : Tak
Usuwanie pocz№tkowych i koсcowych blokуw ciszy               : Nie
Do przeliczenia sumy kontrolnej CRC uїywane s№ prуbki zerowe : Nie
Interfejs                                                    : Wewnкtrzny interfejs Win32 dla Windows NT i 2000
Uїyty format wyjњciowy        : Koder uїytkownika
Wybrana przepіywnoњж bitуw    : 768 kBit/s
Jakoњж                        : Wysoka
Dodawanie znacznikуw ID3      : Nie
Kompresor linii poleceс       : C:\Program Files\Exact Audio Copy\FLAC\FLAC.EXE
Dodatkowe opcje linii poleceс : -6 -V -T "ARTIST=%a" -T "TITLE=%t" -T "ALBUM=%g" -T "DATE=%y" -T "TRACKNUMBER=%n" -T "GENRE=%m" -T "COMMENT=%e" %s -o %d
TOC zgranej pіyty
     Utwуr | Pocz№tek |  Dіugoњж | Sektor pocz№tkowy | Sektor koсcowy
    ------------------------------------------------------------------
        1  |  0:00.32 |  4:26.70 |          32       |      20051
        2  |  4:27.27 |  3:32.15 |       20052       |      35966
        3  |  7:59.42 |  3:51.68 |       35967       |      53359
        4  | 11:51.35 |  3:14.70 |       53360       |      67979
        5  | 15:06.30 |  2:06.57 |       67980       |      77486
        6  | 17:13.12 |  5:34.73 |       77487       |     102609
        7  | 22:48.10 |  3:31.07 |      102610       |     118441
        8  | 26:19.17 |  3:02.10 |      118442       |     132101
        9  | 29:21.27 |  4:05.03 |      132102       |     150479
       10  | 33:26.30 |  2:55.65 |      150480       |     163669
       11  | 36:22.20 |  3:24.05 |      163670       |     178974
       12  | 39:46.25 |  4:57.37 |      178975       |     201286
       13  | 44:43.62 |  3:25.05 |      201287       |     216666
Stan i bікdy zakresu
Wybrany zakres
     Њcieїka pliku C:\Documents and Settings\xxx\Pulpit\Wilki-Przedmiescia\Wilki - Przedmiescia.wav
     Poziom wysterowania 100.0 %
     Jakoњж zakresu 100.0 %
     CRC kopii     A3B70185
     Kopia bezbікdna
Nie byіo bікdуw
Podsumowanie AccurateRip
Nagranie  1  zgrane bezbікdnie (wiarygodnoњж 1)  [D4DCB796]
Nagranie  2  zgrane bezbікdnie (wiarygodnoњж 1)  [A6D1D0F3]
Nagranie  3  zgrane bezbікdnie (wiarygodnoњж 1)  [EEBBBD08]
Nagranie  4  zgrane bezbікdnie (wiarygodnoњж 1)  [9823D466]
Nagranie  5  zgrane bezbікdnie (wiarygodnoњж 1)  [10ADF3EE]
Nagranie  6  zgrane bezbікdnie (wiarygodnoњж 1)  [70818DA3]
Nagranie  7  zgrane bezbікdnie (wiarygodnoњж 1)  [8430EBC6]
Nagranie  8  zgrane bezbікdnie (wiarygodnoњж 1)  [66FBC637]
Nagranie  9  zgrane bezbікdnie (wiarygodnoњж 1)  [87FD35EF]
Nagranie 10  zgrane bezbікdnie (wiarygodnoњж 1)  [E5B8425E]
Nagranie 11  zgrane bezbікdnie (wiarygodnoњж 1)  [14C662D0]
Nagranie 12  zgrane bezbікdnie (wiarygodnoњж 1)  [00423D2C]
Nagranie 13  zgrane bezbікdnie (wiarygodnoњж 1)  [54535975]
Wszystkie nagrania zostaіy zgrane akuratnie
Koniec raportu
Код:
REM GENRE Rock
REM DATE 1992
REM DISCID DD0F0D10
REM COMMENT "ExactAudioCopy v0.99pb4"
PERFORMER "Wilki"
TITLE "Wilki"
FILE "01 - Eroll.wav" WAVE
  TRACK 01 AUDIO
    TITLE "Eroll"
    PERFORMER "Wilki"
    PREGAP 00:00:43
    INDEX 01 00:00:00
FILE "02 - Nic zamieszkuj№ demony.wav" WAVE
  TRACK 02 AUDIO
    TITLE "Nic zamieszkuj№ demony"
    PERFORMER "Wilki"
    INDEX 01 00:00:00
  TRACK 03 AUDIO
    TITLE "Son Of The Blue Sky"
    PERFORMER "Wilki"
    INDEX 00 04:20:50
FILE "03 - Son Of The Blue Sky.wav" WAVE
    INDEX 01 00:00:00
  TRACK 04 AUDIO
    TITLE "Amiranda"
    PERFORMER "Wilki"
    INDEX 00 04:06:12
FILE "04 - Amiranda.wav" WAVE
    INDEX 01 00:00:00
  TRACK 05 AUDIO
    TITLE "Rachela"
    PERFORMER "Wilki"
    INDEX 00 03:41:20
FILE "05 - Rachela.wav" WAVE
    INDEX 01 00:00:00
  TRACK 06 AUDIO
    TITLE "Beniamin"
    PERFORMER "Wilki"
    INDEX 00 04:52:15
FILE "06 - Beniamin.wav" WAVE
    INDEX 01 00:00:00
  TRACK 07 AUDIO
    TITLE "Glorya"
    PERFORMER "Wilki"
    INDEX 00 03:59:22
FILE "07 - Glorya.wav" WAVE
    INDEX 01 00:00:00
FILE "08 - Aborygen.wav" WAVE
  TRACK 08 AUDIO
    TITLE "Aborygen"
    PERFORMER "Wilki"
    INDEX 01 00:00:00
  TRACK 09 AUDIO
    TITLE "Eli lama sabachtani"
    PERFORMER "Wilki"
    INDEX 00 03:51:05
FILE "09 - Eli lama sabachtani.wav" WAVE
    INDEX 01 00:00:00
  TRACK 10 AUDIO
    TITLE "Z ulicy Kamiennej"
    PERFORMER "Wilki"
    INDEX 00 03:33:52
FILE "10 - Z ulicy Kamiennej.wav" WAVE
    INDEX 01 00:00:00
  TRACK 11 AUDIO
    TITLE "Uyao"
    PERFORMER "Wilki"
    INDEX 00 04:05:08
FILE "11 - Uyao.wav" WAVE
    INDEX 01 00:00:00
  TRACK 12 AUDIO
    TITLE "Wilki"
    PERFORMER "Wilki"
    INDEX 00 04:46:48
FILE "12 - Wilki.wav" WAVE
    INDEX 01 00:00:00
  TRACK 13 AUDIO
    TITLE "Amiranda (Abbey mix)"
    PERFORMER "Wilki"
    INDEX 00 01:04:30
FILE "13 - Amiranda (Abbey mix).wav" WAVE
    INDEX 01 00:00:00
  TRACK 14 AUDIO
    TITLE "Glorya (Abbey mix)"
    PERFORMER "Wilki"
    INDEX 00 03:40:72
FILE "14 - Glorya (Abbey mix).wav" WAVE
    INDEX 01 00:00:00
  TRACK 15 AUDIO
    TITLE "Beniamin (Abbey mix)"
    PERFORMER "Wilki"
    INDEX 00 03:58:45
FILE "15 - Beniamin (Abbey mix).wav" WAVE
    INDEX 01 00:00:00
  TRACK 16 AUDIO
    TITLE "Son Of The Blue Sky (Abbey mix)"
    PERFORMER "Wilki"
    INDEX 00 03:57:53
FILE "16 - Son Of The Blue Sky (Abbey mix).wav" WAVE
    INDEX 01 00:00:00
___________________________________________________________________
REM GENRE Rock
REM DATE 1993
REM DISCID B30B480D
REM COMMENT "ExactAudioCopy v0.99pb5"
PERFORMER "Wilki"
TITLE "Przedmiescia"
FILE "Wilki - Przedmiescia.flac" WAVE
  TRACK 01 AUDIO
    TITLE "Nie zabije nocy"
    PERFORMER "Wilki"
    INDEX 00 00:00:00
    INDEX 01 00:00:32
  TRACK 02 AUDIO
    TITLE "Crazy Summer"
    PERFORMER "Wilki"
    INDEX 00 04:23:02
    INDEX 01 04:27:27
  TRACK 03 AUDIO
    TITLE "Moja 'Baby'"
    PERFORMER "Wilki"
    INDEX 00 07:56:20
    INDEX 01 07:59:42
  TRACK 04 AUDIO
    TITLE "Letnia piosenka dla Ciebie"
    PERFORMER "Wilki"
    INDEX 00 11:47:17
    INDEX 01 11:51:35
  TRACK 05 AUDIO
    TITLE "Hiszpan"
    PERFORMER "Wilki"
    INDEX 00 15:03:57
    INDEX 01 15:06:30
  TRACK 06 AUDIO
    TITLE "Ballada Emanuel"
    PERFORMER "Wilki"
    INDEX 00 17:09:62
    INDEX 01 17:13:12
  TRACK 07 AUDIO
    TITLE "Jeden raz odwiedzamy swiat"
    PERFORMER "Wilki"
    INDEX 00 22:44:27
    INDEX 01 22:48:10
  TRACK 08 AUDIO
    TITLE "Cien w Dolinie Mgiel"
    PERFORMER "Wilki"
    INDEX 00 26:15:60
    INDEX 01 26:19:17
  TRACK 09 AUDIO
    TITLE "Nasze przedmiescia"
    PERFORMER "Wilki"
    INDEX 00 29:17:72
    INDEX 01 29:21:27
  TRACK 10 AUDIO
    TITLE "N'Avoie"
    PERFORMER "Wilki"
    INDEX 00 33:23:15
    INDEX 01 33:26:30
  TRACK 11 AUDIO
    TITLE "Slonce moja wiara"
    PERFORMER "Wilki"
    INDEX 00 36:18:50
    INDEX 01 36:22:20
  TRACK 12 AUDIO
    TITLE "Kiedy nie ma juz nic (blues)"
    PERFORMER "Wilki"
    INDEX 00 39:43:47
    INDEX 01 39:46:25
  TRACK 13 AUDIO
    TITLE "Indian Summer"
    PERFORMER "Wilki"
    INDEX 00 44:41:00
    INDEX 01 44:43:62
Правила, инструкции, FAQ!!!
Торрент  Добавлен [26 мар 2019, 20:39] Скачать торрент Магнет ссылка
Скачать торрент
[ Размер 17.82 КБ / Просмотров 1 ]

Статус
Проверен 
 
Размер  745.8 МБ
Приватный: Нет (DHT включён)
.torrent скачан  0
 


     Отправить личное сообщение
   
Страница 1 из 1
Показать сообщения за:  Поле сортировки  
Начать новую тему Ответить на тему


Сейчас этот форум просматривают: нет зарегистрированных пользователей и гости: 0


Вы не можете начинать темы
Вы не можете отвечать на сообщения
Вы не можете редактировать свои сообщения
Вы не можете удалять свои сообщения
Вы не можете добавлять вложения

Перейти:  
cron
cron