Начать новую тему Ответить на тему
Статистика раздачи
Размер: 277.68 МБ | Добавлен: 26 мар 2019, 20:07 | Скачали: 0
Сидеров: 0  [0 байт/сек]    Личеров: 0  [0 байт/сек]
Пред. тема | След. тема 

Автор
Сообщение

СообщениеДобавлено: 26 мар 2019, 20:07 

Ответить с цитатой 

Wild Strawberries / Heroine
Жанр: Pop-Rock
Носитель: CD
Страна-производитель диска (релиза): Canada
Год издания: 1995
Издатель (лейбл): Network Productions
Номер по каталогу: CW230099
Аудиокодек: FLAC (*.flac)
Тип рипа: tracks+.cue
Битрейт аудио: lossless
Продолжительность: 0:43:26.
Источник (релизер): clustert
Наличие сканов в содержимом раздачи: да
Треклист:
01. I Don't Want To Think About It [0:03:46.30]
02. Careful [0:03:25.55]
03. Heroine [0:04:08.45]
04. Fall [0:02:43.67]
05. Invitation [0:03:05.28]
06. On My Own [0:04:07.70]
07. Debutante [0:03:21.40]
08. Aisle C [0:02:48.12]
09. Fine [0:04:21.00]
10. Everything That Rises [0:03:58.65]
11. Give It Up [0:03:23.03]
12. Everybody Loves You When You're Dead [0:04:15.37]
Код:
Exact Audio Copy V1.0 beta 3 from 29. August 2011
Отчёт EAC об извлечении, выполненном 6. ноября 2018, 22:07
Wild Strawberries / Heroine
Дисковод: ASUS    DRW-1814BLT   Adapter: 5  ID: 0
Режим чтения                 : Достоверность
Использование точного потока : Да
Отключение кэша аудио        : Да
Использование указателей C2  : Нет
Коррекция смещения при чтении                     : 6
Способность читать области Lead-in и Lead-out     : Нет
Заполнение пропущенных сэмплов тишиной            : Да
Удаление блоков с тишиной в начале и конце        : Нет
При вычислениях CRC использовались нулевые сэмплы : Да
Интерфейс                                         : Встроенный Win32-интерфейс для Win NT/2000
Обработка зазоров                                 : Добавлено к предыдущему треку
Выходной формат          : Пользовательский кодировщик
Выбранный битрейт        : 128 kBit/s
Качество                 : Высокий
Добавление ID3-тега      : Нет
Утилита сжатия           : C:\Program Files\Exact Audio Copy\Flac\flac.exe
Дополнительные параметры :  -V -8 -T "Genre=%genre%" -T "Artist=%artist%" -T "Title=%title%" -T "Album=%albumtitle%" -T "Date=%year%" -T "Tracknumber=%tracknr%" -T "Comment=EAC1.0b2 FLAC -8" %source%
TOC извлечённого CD
     Трек |   Старт  | Длительность | Начальный сектор | Конечный сектор
    ---------------------------------------------------------------------
       1  |  0:00.00 |    3:46.30   |           0      |      16979
       2  |  3:46.30 |    3:25.55   |       16980      |      32409
       3  |  7:12.10 |    4:08.45   |       32410      |      51054
       4  | 11:20.55 |    2:43.67   |       51055      |      63346
       5  | 14:04.47 |    3:05.28   |       63347      |      77249
       6  | 17:10.00 |    4:07.70   |       77250      |      95844
       7  | 21:17.70 |    3:21.40   |       95845      |     110959
       8  | 24:39.35 |    2:48.12   |      110960      |     123571
       9  | 27:27.47 |    4:21.00   |      123572      |     143146
      10  | 31:48.47 |    3:58.65   |      143147      |     161061
      11  | 35:47.37 |    3:23.03   |      161062      |     176289
      12  | 39:10.40 |    4:15.37   |      176290      |     195451
Трек  1
     Имя файла R:\Раздача 80\Wild Strawberries - 1995 - Heroine\01 I Don't Want To Think About It .wav
     Длина предзазора  0:00:02.00
     Пиковый уровень 98.6 %
     Скорость извлечения 1.5 X
     Качество трека 99.9 %
     CRC теста 9618889B
     CRC копии 9618889B
     Точное извлечение (достоверность 4)  [5EFC70BE]  (AR v2)
     Копирование... OK
Трек  2
     Имя файла R:\Раздача 80\Wild Strawberries - 1995 - Heroine\02 Careful .wav
     Длина предзазора  0:00:01.00
     Пиковый уровень 98.9 %
     Скорость извлечения 1.8 X
     Качество трека 99.9 %
     CRC теста BD422C4A
     CRC копии BD422C4A
     Точное извлечение (достоверность 4)  [957A31B9]  (AR v2)
     Копирование... OK
Трек  3
     Имя файла R:\Раздача 80\Wild Strawberries - 1995 - Heroine\03 Heroine .wav
     Длина предзазора  0:00:01.05
     Пиковый уровень 96.8 %
     Скорость извлечения 3.1 X
     Качество трека 100.0 %
     CRC теста 09DF9C29
     CRC копии 09DF9C29
     Точное извлечение (достоверность 4)  [58C2FCA0]  (AR v2)
     Копирование... OK
Трек  4
     Имя файла R:\Раздача 80\Wild Strawberries - 1995 - Heroine\04 Fall .wav
     Длина предзазора  0:00:01.20
     Пиковый уровень 95.9 %
     Скорость извлечения 3.1 X
     Качество трека 100.0 %
     CRC теста 383E9E74
     CRC копии 383E9E74
     Точное извлечение (достоверность 4)  [3A5B7ECD]  (AR v2)
     Копирование... OK
Трек  5
     Имя файла R:\Раздача 80\Wild Strawberries - 1995 - Heroine\05 Invitation .wav
     Длина предзазора  0:00:01.02
     Пиковый уровень 93.4 %
     Скорость извлечения 3.3 X
     Качество трека 100.0 %
     CRC теста 3C818F16
     CRC копии 3C818F16
     Точное извлечение (достоверность 4)  [12A97BE1]  (AR v2)
     Копирование... OK
Трек  6
     Имя файла R:\Раздача 80\Wild Strawberries - 1995 - Heroine\06 On My Own .wav
     Пиковый уровень 90.1 %
     Скорость извлечения 3.6 X
     Качество трека 100.0 %
     CRC теста 5EF3C34B
     CRC копии 5EF3C34B
     Точное извлечение (достоверность 4)  [AE9B7644]  (AR v2)
     Копирование... OK
Трек  7
     Имя файла R:\Раздача 80\Wild Strawberries - 1995 - Heroine\07 Debutante .wav
     Пиковый уровень 98.5 %
     Скорость извлечения 2.1 X
     Качество трека 99.9 %
     CRC теста 2AB92907
     CRC копии 2AB92907
     Точное извлечение (достоверность 4)  [000D6DA5]  (AR v2)
     Копирование... OK
Трек  8
     Имя файла R:\Раздача 80\Wild Strawberries - 1995 - Heroine\08 Aisle C .wav
     Длина предзазора  0:00:00.63
     Пиковый уровень 96.9 %
     Скорость извлечения 3.7 X
     Качество трека 100.0 %
     CRC теста 44AE443E
     CRC копии 44AE443E
     Точное извлечение (достоверность 4)  [24C93CD6]  (AR v2)
     Копирование... OK
Трек  9
     Имя файла R:\Раздача 80\Wild Strawberries - 1995 - Heroine\09 Fine .wav
     Пиковый уровень 93.5 %
     Скорость извлечения 4.2 X
     Качество трека 100.0 %
     CRC теста E4BAE4A1
     CRC копии E4BAE4A1
     Точное извлечение (достоверность 4)  [FE5BC97A]  (AR v2)
     Копирование... OK
Трек 10
     Имя файла R:\Раздача 80\Wild Strawberries - 1995 - Heroine\10 Everything That Rises .wav
     Длина предзазора  0:00:00.62
     Пиковый уровень 97.0 %
     Скорость извлечения 4.3 X
     Качество трека 100.0 %
     CRC теста 15906E13
     CRC копии 15906E13
     Точное извлечение (достоверность 4)  [1C4F82F8]  (AR v2)
     Копирование... OK
Трек 11
     Имя файла R:\Раздача 80\Wild Strawberries - 1995 - Heroine\11 Give It Up .wav
     Длина предзазора  0:00:00.72
     Пиковый уровень 90.7 %
     Скорость извлечения 4.4 X
     Качество трека 100.0 %
     CRC теста 539B7B34
     CRC копии 539B7B34
     Точное извлечение (достоверность 4)  [CAD1E834]  (AR v2)
     Копирование... OK
Трек 12
     Имя файла R:\Раздача 80\Wild Strawberries - 1995 - Heroine\12 Everybody Loves You When You're Dead .wav
     Пиковый уровень 94.7 %
     Скорость извлечения 4.6 X
     Качество трека 100.0 %
     CRC теста 74C6CF3A
     CRC копии 74C6CF3A
     Точное извлечение (достоверность 4)  [173C2EEB]  (AR v2)
     Копирование... OK
Все треки извлечены точно
Ошибок не произошло
Конец отчёта
==== Контрольная сумма отчёта EC13A5FCAB15FAD9236ABBA6AE83CEEB7D1E6BA8804C8C202EB4AC6CAD4BBAF3 ====
Код:
REM GENRE Pop-Rock
REM DATE 1995
REM DISCID 9D0A2E0C
REM COMMENT "ExactAudioCopy v1.0b3"
CATALOG 0000000000000
PERFORMER "Wild Strawberries"
TITLE "Heroine"
FILE "01 I Don't Want To Think About It .wav" WAVE
  TRACK 01 AUDIO
    TITLE "I Don't Want To Think About It"
    PERFORMER "Wild Strawberries"
    INDEX 01 00:00:00
  TRACK 02 AUDIO
    TITLE "Careful"
    PERFORMER "Wild Strawberries"
    INDEX 00 03:45:30
FILE "02 Careful .wav" WAVE
    INDEX 01 00:00:00
  TRACK 03 AUDIO
    TITLE "Heroine"
    PERFORMER "Wild Strawberries"
    INDEX 00 03:24:50
FILE "03 Heroine .wav" WAVE
    INDEX 01 00:00:00
  TRACK 04 AUDIO
    TITLE "Fall"
    PERFORMER "Wild Strawberries"
    INDEX 00 04:07:25
FILE "04 Fall .wav" WAVE
    INDEX 01 00:00:00
  TRACK 05 AUDIO
    TITLE "Invitation"
    PERFORMER "Wild Strawberries"
    INDEX 00 02:42:65
FILE "05 Invitation .wav" WAVE
    INDEX 01 00:00:00
FILE "06 On My Own .wav" WAVE
  TRACK 06 AUDIO
    TITLE "On My Own"
    PERFORMER "Wild Strawberries"
    INDEX 01 00:00:00
FILE "07 Debutante .wav" WAVE
  TRACK 07 AUDIO
    TITLE "Debutante"
    PERFORMER "Wild Strawberries"
    INDEX 01 00:00:00
  TRACK 08 AUDIO
    TITLE "Aisle C"
    PERFORMER "Wild Strawberries"
    INDEX 00 03:20:52
FILE "08 Aisle C .wav" WAVE
    INDEX 01 00:00:00
FILE "09 Fine .wav" WAVE
  TRACK 09 AUDIO
    TITLE "Fine"
    PERFORMER "Wild Strawberries"
    INDEX 01 00:00:00
  TRACK 10 AUDIO
    TITLE "Everything That Rises"
    PERFORMER "Wild Strawberries"
    INDEX 00 04:20:13
FILE "10 Everything That Rises .wav" WAVE
    INDEX 01 00:00:00
  TRACK 11 AUDIO
    TITLE "Give It Up"
    PERFORMER "Wild Strawberries"
    INDEX 00 03:57:68
FILE "11 Give It Up .wav" WAVE
    INDEX 01 00:00:00
FILE "12 Everybody Loves You When You're Dead .wav" WAVE
  TRACK 12 AUDIO
    TITLE "Everybody Loves You When You're Dead"
    PERFORMER "Wild Strawberries"
    INDEX 01 00:00:00
Правила, инструкции, FAQ!!!
Торрент  Добавлен [26 мар 2019, 20:07] Скачать торрент Магнет ссылка
Скачать торрент
[ Размер 12.56 КБ / Просмотров 1 ]

Статус
Проверен 
 
Размер  277.68 МБ
Приватный: Нет (DHT включён)
.torrent скачан  0
 


     Отправить личное сообщение
   
Страница 1 из 1
Показать сообщения за:  Поле сортировки  
Начать новую тему Ответить на тему


Сейчас этот форум просматривают: нет зарегистрированных пользователей и гости: 0


Вы не можете начинать темы
Вы не можете отвечать на сообщения
Вы не можете редактировать свои сообщения
Вы не можете удалять свои сообщения
Вы не можете добавлять вложения

Перейти:  
cron