Начать новую тему Ответить на тему
Статистика раздачи
Размер: 418.79 МБ | Добавлен: 26 мар 2019, 20:25 | Скачали: 0
Сидеров: 0  [0 байт/сек]    Личеров: 0  [0 байт/сек]
Пред. тема | След. тема 

Автор
Сообщение

СообщениеДобавлено: 26 мар 2019, 20:25 

Ответить с цитатой 

Veil Of Obscurity / In The Beginning...
Жанр: Pop/Rock
Носитель: CD
Страна-производитель диска (релиза): Japan
Год издания: 2018
Издатель (лейбл): King Records
Номер по каталогу: KICP-1910
Страна исполнителя (группы): International
Аудиокодек: FLAC (*.flac)
Тип рипа: image+.cue
Битрейт аудио: lossless
Продолжительность: 0:52:08
Источник (релизер): собственный рип
Наличие сканов в содержимом раздачи: да
Треклист:
01. Out Of Obscurity (5:31)
02. Free Mind (5:37)
03. Rise Above (4:17)
04. Lost (4:28)
05. Letting Down The Line (5:36)
06. Gambler (5:05)
07. L'amour (4:41)
08. I'm Real (4:50)
09. Love Sets Me Free (4:58)
10. Spy Games (7:04)*
*- Japan Bonus Track
Код:
Exact Audio Copy V1.3 from 2. September 2016
EAC extraction logfile from 25. May 2018, 3:12
Veil Of Obscurity / In The Beginning...
Used drive  : ASUS    DRW-1612BL   Adapter: 2  ID: 0
Read mode               : Secure
Utilize accurate stream : Yes
Defeat audio cache      : Yes
Make use of C2 pointers : No
Read offset correction                      : 6
Overread into Lead-In and Lead-Out          : No
Fill up missing offset samples with silence : Yes
Delete leading and trailing silent blocks   : No
Null samples used in CRC calculations       : Yes
Used interface                              : Installed external ASPI interface
Used output format              : User Defined Encoder
Selected bitrate                : 128 kBit/s
Quality                         : High
Add ID3 tag                     : No
Command line compressor         : C:\Program Files\EAC\Exact Audio Copy\Flac\flac.exe
Additional command line options : -V -8 -T "Date=%year%" -T "Genre=%genre%" %source%
TOC of the extracted CD
     Track |   Start  |  Length  | Start sector | End sector
    ---------------------------------------------------------
        1  |  0:00.00 |  5:31.32 |         0    |    24856
        2  |  5:31.32 |  5:37.37 |     24857    |    50168
        3  | 11:08.69 |  4:17.37 |     50169    |    69480
        4  | 15:26.31 |  4:27.74 |     69481    |    89579
        5  | 19:54.30 |  5:35.48 |     89580    |   114752
        6  | 25:30.03 |  5:05.14 |    114753    |   137641
        7  | 30:35.17 |  4:40.65 |    137642    |   158706
        8  | 35:16.07 |  4:50.24 |    158707    |   180480
        9  | 40:06.31 |  4:57.67 |    180481    |   202822
       10  | 45:04.23 |  7:04.09 |    202823    |   234631
Range status and errors
Selected range
     Filename C:\darkbrides\Veil Of Obscurity - In The Beginning....wav
     Peak level 100.0 %
     Extraction speed 7.6 X
     Range quality 99.9 %
     Test CRC A131E05E
     Copy CRC A131E05E
     Copy OK
No errors occurred
AccurateRip summary
Track  1  not present in database
Track  2  not present in database
Track  3  not present in database
Track  4  not present in database
Track  5  not present in database
Track  6  not present in database
Track  7  not present in database
Track  8  not present in database
Track  9  not present in database
Track 10  not present in database
None of the tracks are present in the AccurateRip database
End of status report
---- CUETools DB Plugin V2.1.6
[CTDB TOCID: _5_W5k_b6odZHTGiZ91SICsjAwE-] disk not present in database
Submit result: _5_W5k_b6odZHTGiZ91SICsjAwE- has been uploaded
==== Log checksum DD609BD12C0D8265E5BFCCEC9B686A117A21C5FB4E7A444A4B053C206ACCF14B ====

Правила, инструкции, FAQ!!!
Торрент  Добавлен [26 мар 2019, 20:25] Скачать торрент Магнет ссылка
Скачать торрент
[ Размер 18.28 КБ / Просмотров 6 ]

Статус
Проверен 
 
Размер  418.79 МБ
Приватный: Нет (DHT включён)
.torrent скачан  0
 


     Отправить личное сообщение
   
Страница 1 из 1
Показать сообщения за:  Поле сортировки  
Начать новую тему Ответить на тему


Сейчас этот форум просматривают: нет зарегистрированных пользователей и гости: 0


Вы не можете начинать темы
Вы не можете отвечать на сообщения
Вы не можете редактировать свои сообщения
Вы не можете удалять свои сообщения
Вы не можете добавлять вложения

Перейти:  
cron