Начать новую тему Ответить на тему
Статистика раздачи
Размер: 251.03 МБ | Добавлен: 26 мар 2019, 19:16 | Скачали: 0
Сидеров: 1  [0 байт/сек]    Личеров: 0  [0 байт/сек]
Пред. тема | След. тема 

Автор
Сообщение

СообщениеДобавлено: 26 мар 2019, 19:16 

Ответить с цитатой 

Uncanny X-Men - What You Give Is What You Get
Жанр: Pop Rock
Носитель: CD
Год издания: 1986
Издатель: CBS
Номер по каталогу: CDCBS 450347 2
Страна группы: Australia
Аудиокодек: FLAC (*.flac)
Тип рипа: tracks+.cue
Битрейт аудио: lossless
Продолжительность: 00:38:15
Релизер: BozMozzis
Наличие сканов в содержимом раздачи: да
Треклист:
01. Nothing Touches My World 4:53
02. Start Believing 3:41
03. I Am 3:30
04. About You 4:31
05. Goodnight 3:48
06. I'm On Heat 3:54
07. Color Your Answer Blue 4:49
08. Don't Wake Me 3:25
09. Playing The Titanic 2:54
10. What You Give 2:57
Код:
Exact Audio Copy V1.0 beta 4 from 7. December 2014
EAC extraction logfile from 8. June 2015, 13:04
Uncanny X-Men / What You Give is What You Get
Used drive  : PIONEER DVD-RW  DVR-220L   Adapter: 1  ID: 0
Read mode               : Secure
Utilize accurate stream : Yes
Defeat audio cache      : Yes
Make use of C2 pointers : No
Read offset correction                      : 6
Overread into Lead-In and Lead-Out          : No
Fill up missing offset samples with silence : Yes
Delete leading and trailing silent blocks   : No
Null samples used in CRC calculations       : Yes
Used interface                              : Native Win32 interface for Win NT & 2000
Gap handling                                : Appended to previous track
Used output format : Internal WAV Routines
Sample format      : 44.100 Hz; 16 Bit; Stereo
TOC of the extracted CD
     Track |   Start  |  Length  | Start sector | End sector
    ---------------------------------------------------------
        1  |  0:00.00 |  4:52.45 |         0    |    21944
        2  |  4:52.45 |  3:40.50 |     21945    |    38494
        3  |  8:33.20 |  3:29.47 |     38495    |    54216
        4  | 12:02.67 |  4:30.55 |     54217    |    74521
        5  | 16:33.47 |  3:48.23 |     74522    |    91644
        6  | 20:21.70 |  3:54.37 |     91645    |   109231
        7  | 24:16.32 |  4:49.13 |    109232    |   130919
        8  | 29:05.45 |  3:24.62 |    130920    |   146281
        9  | 32:30.32 |  2:53.55 |    146282    |   159311
       10  | 35:24.12 |  2:56.48 |    159312    |   172559
Track  1
     Filename E:\Uncany X-Men - What You Give Is What You Get (1986 CBS Australia CDCBS450347 2)\01 - Nothing Touches My World.wav
     Pre-gap length  0:00:02.00
     Peak level 75.9 %
     Extraction speed 4.4 X
     Track quality 100.0 %
     Test CRC EF6D86BF
     Copy CRC EF6D86BF
     Accurately ripped (confidence 1)  [3668515B]  (AR v2)
     Copy OK
Track  2
     Filename E:\Uncany X-Men - What You Give Is What You Get (1986 CBS Australia CDCBS450347 2)\02 - Start Believing.wav
     Peak level 61.6 %
     Extraction speed 4.7 X
     Track quality 100.0 %
     Test CRC 6EC9A4D6
     Copy CRC 6EC9A4D6
     Accurately ripped (confidence 1)  [6DCED779]  (AR v2)
     Copy OK
Track  3
     Filename E:\Uncany X-Men - What You Give Is What You Get (1986 CBS Australia CDCBS450347 2)\03 - I Am.wav
     Peak level 65.7 %
     Extraction speed 5.1 X
     Track quality 100.0 %
     Test CRC D30851ED
     Copy CRC D30851ED
     Accurately ripped (confidence 1)  [482C57DC]  (AR v2)
     Copy OK
Track  4
     Filename E:\Uncany X-Men - What You Give Is What You Get (1986 CBS Australia CDCBS450347 2)\04 - About You.wav
     Peak level 64.0 %
     Extraction speed 5.7 X
     Track quality 100.0 %
     Test CRC AEBF2B54
     Copy CRC AEBF2B54
     Accurately ripped (confidence 1)  [484A8977]  (AR v2)
     Copy OK
Track  5
     Filename E:\Uncany X-Men - What You Give Is What You Get (1986 CBS Australia CDCBS450347 2)\05 - Goodnight.wav
     Pre-gap length  0:00:01.00
     Peak level 59.9 %
     Extraction speed 5.8 X
     Track quality 100.0 %
     Test CRC 133B3990
     Copy CRC 133B3990
     Accurately ripped (confidence 1)  [96590ABC]  (AR v2)
     Copy OK
Track  6
     Filename E:\Uncany X-Men - What You Give Is What You Get (1986 CBS Australia CDCBS450347 2)\06 - I'm on Heat.wav
     Peak level 57.2 %
     Extraction speed 6.2 X
     Track quality 100.0 %
     Test CRC 345D224A
     Copy CRC 345D224A
     Accurately ripped (confidence 1)  [7E2E8B1C]  (AR v2)
     Copy OK
Track  7
     Filename E:\Uncany X-Men - What You Give Is What You Get (1986 CBS Australia CDCBS450347 2)\07 - Colour Your Answer Blue.wav
     Pre-gap length  0:00:00.65
     Peak level 57.5 %
     Extraction speed 5.6 X
     Track quality 99.9 %
     Test CRC B5C6F3BA
     Copy CRC B5C6F3BA
     Accurately ripped (confidence 1)  [CCD7EC45]  (AR v2)
     Copy OK
Track  8
     Filename E:\Uncany X-Men - What You Give Is What You Get (1986 CBS Australia CDCBS450347 2)\08 - Don't Wake Me.wav
     Peak level 48.2 %
     Extraction speed 5.3 X
     Track quality 99.9 %
     Test CRC 0ECE3DDF
     Copy CRC 0ECE3DDF
     Accurately ripped (confidence 1)  [1C0C9AD5]  (AR v2)
     Copy OK
Track  9
     Filename E:\Uncany X-Men - What You Give Is What You Get (1986 CBS Australia CDCBS450347 2)\09 - Playing The Titanic.wav
     Peak level 58.4 %
     Extraction speed 6.7 X
     Track quality 100.0 %
     Test CRC 9640271D
     Copy CRC 9640271D
     Accurately ripped (confidence 1)  [8C305D84]  (AR v2)
     Copy OK
Track 10
     Filename E:\Uncany X-Men - What You Give Is What You Get (1986 CBS Australia CDCBS450347 2)\10 - What You Give.wav
     Peak level 60.7 %
     Extraction speed 5.3 X
     Track quality 99.9 %
     Test CRC 46B4023A
     Copy CRC 46B4023A
     Accurately ripped (confidence 1)  [7198945B]  (AR v2)
     Copy OK
All tracks accurately ripped
No errors occurred
End of status report
---- CUETools DB Plugin V2.1.4
[CTDB TOCID: _lB4QNTDsjN5ui9Bbo4JiHcvN_0-] found
Submit result: _lB4QNTDsjN5ui9Bbo4JiHcvN_0- has been confirmed
Track | CTDB Status
  1   | (1/1) Accurately ripped
  2   | (1/1) Accurately ripped
  3   | (1/1) Accurately ripped
  4   | (1/1) Accurately ripped
  5   | (1/1) Accurately ripped
  6   | (1/1) Accurately ripped
  7   | (1/1) Accurately ripped
  8   | (1/1) Accurately ripped
  9   | (1/1) Accurately ripped
 10   | (1/1) Accurately ripped
Код:
REM GENRE Pop
REM DATE 1986
REM DISCID 8908FC0A
REM COMMENT "ExactAudioCopy v1.0b4"
PERFORMER "Uncanny X-Men"
TITLE "What You Give is What You Get"
FILE "01 - Nothing Touches My World.wav" WAVE
  TRACK 01 AUDIO
    TITLE "Nothing Touches My World"
    PERFORMER "Uncanny X-Men"
    INDEX 01 00:00:00
FILE "02 - Start Believing.wav" WAVE
  TRACK 02 AUDIO
    TITLE "Start Believing"
    PERFORMER "Uncanny X-Men"
    INDEX 01 00:00:00
FILE "03 - I Am.wav" WAVE
  TRACK 03 AUDIO
    TITLE "I Am"
    PERFORMER "Uncanny X-Men"
    INDEX 01 00:00:00
FILE "04 - About You.wav" WAVE
  TRACK 04 AUDIO
    TITLE "About You"
    PERFORMER "Uncanny X-Men"
    INDEX 01 00:00:00
  TRACK 05 AUDIO
    TITLE "Goodnight"
    PERFORMER "Uncanny X-Men"
    INDEX 00 04:29:55
FILE "05 - Goodnight.wav" WAVE
    INDEX 01 00:00:00
FILE "06 - I'm on Heat.wav" WAVE
  TRACK 06 AUDIO
    TITLE "I'm on Heat"
    PERFORMER "Uncanny X-Men"
    INDEX 01 00:00:00
  TRACK 07 AUDIO
    TITLE "Colour Your Answer Blue"
    PERFORMER "Uncanny X-Men"
    INDEX 00 03:53:47
FILE "07 - Colour Your Answer Blue.wav" WAVE
    INDEX 01 00:00:00
FILE "08 - Don't Wake Me.wav" WAVE
  TRACK 08 AUDIO
    TITLE "Don't Wake Me"
    PERFORMER "Uncanny X-Men"
    INDEX 01 00:00:00
FILE "09 - Playing The Titanic.wav" WAVE
  TRACK 09 AUDIO
    TITLE "Playing The Titanic"
    PERFORMER "Uncanny X-Men"
    INDEX 01 00:00:00
FILE "10 - What You Give.wav" WAVE
  TRACK 10 AUDIO
    TITLE "What You Give"
    PERFORMER "Uncanny X-Men"
    INDEX 01 00:00:00
Код:
AUDIOCHECKER v2.0 beta (build 457) - by Dester - opdester@freemail.hu
~~~~~~~~~~~~~~~~~~~~~~~~~~~~~~~~~~
-=== НЕ РЕДАКТИРУЙТЕ ЭТОТ ФАЙЛ! ===-
Путь: ...\Uncanny X-Men - What You Give Is What You Get (1986) [FLAC]
01 -=- 01 - Nothing Touches My World.flac -=- CDDA (100%)
02 -=- 02 - Start Believing.flac -=- CDDA (99%)
03 -=- 03 - I Am.flac -=- CDDA (100%)
04 -=- 04 - About You.flac -=- CDDA (100%)
05 -=- 05 - Goodnight.flac -=- CDDA (99%)
06 -=- 06 - I'm on Heat.flac -=- CDDA (100%)
07 -=- 07 - Colour Your Answer Blue.flac -=- CDDA (100%)
08 -=- 08 - Don't Wake Me.flac -=- CDDA (99%)
09 -=- 09 - Playing The Titanic.flac -=- CDDA (100%)
10 -=- 10 - What You Give.flac -=- CDDA (100%)
Сводка 99,70% CDDA
200889220
Chuck Hargreaves – guitar
Brian Mannix – lead vocals
Ron Thiessen – guitar
John Kirk – bass guitar
Craig Waugh – drums
Правила, инструкции, FAQ!!!
Торрент  Добавлен [26 мар 2019, 19:16] Скачать торрент Магнет ссылка
Скачать торрент
[ Размер 20.94 КБ / Просмотров 2 ]

Статус
Проверен 
 
Размер  251.03 МБ
Приватный: Нет (DHT включён)
.torrent скачан  0
 


     Отправить личное сообщение
   
Страница 1 из 1
Показать сообщения за:  Поле сортировки  
Начать новую тему Ответить на тему


Сейчас этот форум просматривают: нет зарегистрированных пользователей и гости: 0


Вы не можете начинать темы
Вы не можете отвечать на сообщения
Вы не можете редактировать свои сообщения
Вы не можете удалять свои сообщения
Вы не можете добавлять вложения

Перейти:  
cron