Начать новую тему Ответить на тему
Статистика раздачи
Размер: 259.61 МБ | Добавлен: 26 мар 2019, 20:53 | Скачали: 0
Сидеров: 0  [0 байт/сек]    Личеров: 0  [0 байт/сек]
Пред. тема | След. тема 

Автор
Сообщение

СообщениеДобавлено: 26 мар 2019, 20:53 

Ответить с цитатой 

Toyah Willcox - Ophelia's Shadow
Жанр: Pop/Rock
Год выпуска диска: 2003
Аудио кодек: FLAC
Тип рипа: image+.cue
Битрейт аудио: lossless
Продолжительность: 00:47:30
Трэклист:
Ophelia's Shadow
The Shaman Says
Brilliant Day
Prospect
Turning Tide
Take What You Will
Ghost Light
The Woman Who Had an Affair With Herself
Homeward
[*]Lords of the Never Known
Состав: Toyah Willcox (Vocals), Keith Tippett (Keyboards), Gordon Haskell (Introduction), Trey Gunn (Keyboards, Stick, Bass), Paul Beavis (Percussion, Drums), Robert Fripp (Guitar), Tony Geballe (Guitar, Computers)
Ремастерированное издание альбома 1991-го года

Код:
Exact Audio Copy V0.99 prebeta 4 from 23. January 2008
EAC extraction logfile from 12. March 2008, 23:08
Toyah / Ophelia's Shadow
Used drive  : PLEXTOR DVDR   PX-750A   Adapter: 0  ID: 1
Read mode               : Secure
Utilize accurate stream : Yes
Defeat audio cache      : No
Make use of C2 pointers : Yes
Read offset correction                      : 102
Overread into Lead-In and Lead-Out          : No
Fill up missing offset samples with silence : Yes
Delete leading and trailing silent blocks   : No
Null samples used in CRC calculations       : No
Used interface                              : Native Win32 interface for Win NT & 2000
Used output format : Internal WAV Routines
Sample format      : 44.100 Hz; 16 Bit; Stereo
TOC of the extracted CD
     Track |   Start  |  Length  | Start sector | End sector
    ---------------------------------------------------------
        1  |  0:00.00 |  5:57.62 |         0    |    26836
        2  |  5:57.62 |  5:25.67 |     26837    |    51278
        3  | 11:23.54 |  2:40.53 |     51279    |    63331
        4  | 14:04.32 |  3:14.62 |     63332    |    77943
        5  | 17:19.19 |  5:43.44 |     77944    |   103712
        6  | 23:02.63 |  5:42.45 |    103713    |   129407
        7  | 28:45.33 |  4:30.66 |    129408    |   149723
        8  | 33:16.24 |  4:19.56 |    149724    |   169204
        9  | 37:36.05 |  5:17.49 |    169205    |   193028
       10  | 42:53.54 |  4:36.29 |    193029    |   213757
Range status and errors
Selected range
     Filename H:\RIP\Toyah - 2003 - Ophelia's Shadow.wav
     Peak level 100.0 %
     Range quality 99.9 %
     Copy CRC 9AD18FAD
     Copy OK
No errors occurred
AccurateRip summary
Track  1  accurately ripped (confidence 1)  [A9BA9C3E]
Track  2  accurately ripped (confidence 1)  [BC84F32F]
Track  3  accurately ripped (confidence 1)  [26716100]
Track  4  accurately ripped (confidence 1)  [7CBAC55F]
Track  5  accurately ripped (confidence 1)  [7DDE77C3]
Track  6  accurately ripped (confidence 1)  [283D41F6]
Track  7  accurately ripped (confidence 1)  [D6919685]
Track  8  accurately ripped (confidence 1)  [F0D1BB16]
Track  9  accurately ripped (confidence 1)  [A0114248]
Track 10  accurately ripped (confidence 1)  [C76EA948]
All tracks accurately ripped
End of status report
Правила, инструкции, FAQ!!!
Торрент  Добавлен [26 мар 2019, 20:53] Скачать торрент Магнет ссылка
Скачать торрент
[ Размер 10.78 КБ / Просмотров 3 ]

Статус
Проверен 
 
Размер  259.61 МБ
Приватный: Нет (DHT включён)
.torrent скачан  0
 


     Отправить личное сообщение
   
Страница 1 из 1
Показать сообщения за:  Поле сортировки  
Начать новую тему Ответить на тему


Сейчас этот форум просматривают: нет зарегистрированных пользователей и гости: 0


Вы не можете начинать темы
Вы не можете отвечать на сообщения
Вы не можете редактировать свои сообщения
Вы не можете удалять свои сообщения
Вы не можете добавлять вложения

Перейти:  
cron