Начать новую тему Ответить на тему
Статистика раздачи
Размер: 337.93 МБ | Добавлен: 26 мар 2019, 18:48 | Скачали: 0
Сидеров: 0  [0 байт/сек]    Личеров: 0  [0 байт/сек]
Пред. тема | След. тема 

Автор
Сообщение

СообщениеДобавлено: 26 мар 2019, 18:48 

Ответить с цитатой 

Tommy Puett / Life Goes On
Жанр: Pop-Rock
Носитель: CD
Страна-производитель диска (релиза): USA
Год издания: 1990
Издатель (лейбл): Scotti Bros. Records
Номер по каталогу: 5200-2-SB
Аудиокодек: FLAC (*.flac)
Тип рипа: tracks+.cue
Битрейт аудио: lossless
Продолжительность: 0:47:31.
Источник (релизер): clustert
Наличие сканов в содержимом раздачи: да
Треклист:
01. Heart Attack [0:04:50.00]
02. Kiss You All Over [0:04:55.55]
03. Let's Communicate [0:05:10.30]
04. Was it Real Love? [0:04:16.72]
05. Will You Wear This Ring? [0:04:59.68]
06. Get Down Tonight [0:05:08.15]
07. Summer Dayz [0:04:07.45]
08. Isn't It Time? [0:05:23.37]
09. Girl on my Mind [0:04:01.55]
10. Love is War [0:04:37.00]
Код:
Exact Audio Copy V1.0 beta 3 from 29. August 2011
Отчёт EAC об извлечении, выполненном 28. октября 2016, 17:35
Tommy Puett / Life Goes On
Дисковод: ASUS    DVD-E616A3T   Adapter: 5  ID: 0
Режим чтения                 : Достоверность
Использование точного потока : Да
Отключение кэша аудио        : Да
Использование указателей C2  : Нет
Коррекция смещения при чтении                     : 6
Способность читать области Lead-in и Lead-out     : Нет
Заполнение пропущенных сэмплов тишиной            : Да
Удаление блоков с тишиной в начале и конце        : Нет
При вычислениях CRC использовались нулевые сэмплы : Да
Интерфейс                                         : Встроенный Win32-интерфейс для Win NT/2000
Обработка зазоров                                 : Добавлено к предыдущему треку
Выходной формат          : Пользовательский кодировщик
Выбранный битрейт        : 128 kBit/s
Качество                 : Высокий
Добавление ID3-тега      : Нет
Утилита сжатия           : C:\Program Files\Exact Audio Copy\Flac\flac.exe
Дополнительные параметры :  -V -8 -T "Genre=%genre%" -T "Artist=%artist%" -T "Title=%title%" -T "Album=%albumtitle%" -T "Date=%year%" -T "Tracknumber=%tracknr%" -T "Comment=EAC1.0b2 FLAC -8" %source%
TOC извлечённого CD
     Трек |   Старт  | Длительность | Начальный сектор | Конечный сектор
    ---------------------------------------------------------------------
       1  |  0:00.00 |    4:50.00   |           0      |      21749
       2  |  4:50.00 |    4:55.55   |       21750      |      43929
       3  |  9:45.55 |    5:10.30   |       43930      |      67209
       4  | 14:56.10 |    4:16.72   |       67210      |      86481
       5  | 19:13.07 |    4:59.68   |       86482      |     108974
       6  | 24:13.00 |    5:08.15   |      108975      |     132089
       7  | 29:21.15 |    4:07.45   |      132090      |     150659
       8  | 33:28.60 |    5:23.37   |      150660      |     174921
       9  | 38:52.22 |    4:01.55   |      174922      |     193051
      10  | 42:54.02 |    4:37.00   |      193052      |     213826
Трек  1
     Имя файла R:\Раздача 68\Tommy Puett - 1990 - Life Goes On\01 Heart Attack .wav
     Длина предзазора  0:00:02.00
     Пиковый уровень 99.9 %
     Скорость извлечения 1.7 X
     Качество трека 100.0 %
     CRC теста 31D55FA1
     CRC копии 31D55FA1
     Точное извлечение (достоверность 1)  [6E47B185]  (AR v2)
     Копирование... OK
Трек  2
     Имя файла R:\Раздача 68\Tommy Puett - 1990 - Life Goes On\02 Kiss You All Over .wav
     Пиковый уровень 97.9 %
     Скорость извлечения 1.9 X
     Качество трека 100.0 %
     CRC теста E4F73B6F
     CRC копии E4F73B6F
     Точное извлечение (достоверность 1)  [B80C0F25]  (AR v2)
     Копирование... OK
Трек  3
     Имя файла R:\Раздача 68\Tommy Puett - 1990 - Life Goes On\03 Let's Communicate .wav
     Пиковый уровень 92.8 %
     Скорость извлечения 1.9 X
     Качество трека 99.9 %
     CRC теста 484A598A
     CRC копии 484A598A
     Точное извлечение (достоверность 1)  [CB768459]  (AR v2)
     Копирование... OK
Трек  4
     Имя файла R:\Раздача 68\Tommy Puett - 1990 - Life Goes On\04 Was it Real Love .wav
     Длина предзазора  0:00:00.08
     Пиковый уровень 93.4 %
     Скорость извлечения 1.9 X
     Качество трека 99.9 %
     CRC теста D4D9BA96
     CRC копии D4D9BA96
     Точное извлечение (достоверность 1)  [62FDBCF4]  (AR v2)
     Копирование... OK
Трек  5
     Имя файла R:\Раздача 68\Tommy Puett - 1990 - Life Goes On\05 Will You Wear This Ring .wav
     Пиковый уровень 98.1 %
     Скорость извлечения 2.4 X
     Качество трека 100.0 %
     CRC теста 47C663A0
     CRC копии 47C663A0
     Точное извлечение (достоверность 1)  [CFE49D55]  (AR v2)
     Копирование... OK
Трек  6
     Имя файла R:\Раздача 68\Tommy Puett - 1990 - Life Goes On\06 Get Down Tonight .wav
     Длина предзазора  0:00:01.23
     Пиковый уровень 94.6 %
     Скорость извлечения 2.6 X
     Качество трека 100.0 %
     CRC теста 4A00AE22
     CRC копии 4A00AE22
     Точное извлечение (достоверность 1)  [02C58D1F]  (AR v2)
     Копирование... OK
Трек  7
     Имя файла R:\Раздача 68\Tommy Puett - 1990 - Life Goes On\07 Summer Dayz .wav
     Пиковый уровень 95.7 %
     Скорость извлечения 2.6 X
     Качество трека 100.0 %
     CRC теста 22519E1F
     CRC копии 22519E1F
     Точное извлечение (достоверность 1)  [F56A3088]  (AR v2)
     Копирование... OK
Трек  8
     Имя файла R:\Раздача 68\Tommy Puett - 1990 - Life Goes On\08 Isn't It Time .wav
     Пиковый уровень 98.6 %
     Скорость извлечения 2.9 X
     Качество трека 100.0 %
     CRC теста B0D2E037
     CRC копии B0D2E037
     Точное извлечение (достоверность 1)  [83EBC4FF]  (AR v2)
     Копирование... OK
Трек  9
     Имя файла R:\Раздача 68\Tommy Puett - 1990 - Life Goes On\09 Girl on my Mind .wav
     Пиковый уровень 96.7 %
     Скорость извлечения 2.9 X
     Качество трека 100.0 %
     CRC теста DD478BA5
     CRC копии DD478BA5
     Точное извлечение (достоверность 1)  [CFEA9A93]  (AR v2)
     Копирование... OK
Трек 10
     Имя файла R:\Раздача 68\Tommy Puett - 1990 - Life Goes On\10 Love is War .wav
     Пиковый уровень 97.0 %
     Скорость извлечения 3.1 X
     Качество трека 100.0 %
     CRC теста 37633A43
     CRC копии 37633A43
     Точное извлечение (достоверность 1)  [3D699E58]  (AR v2)
     Копирование... OK
Все треки извлечены точно
Ошибок не произошло
Конец отчёта
==== Контрольная сумма отчёта F7F6780FA10554ABE2E418CD5505C00AF502985F552E681B145D0537CBF594B9 ====
Код:
REM GENRE Pop-Rock
REM DATE 1990
REM DISCID 8B0B230A
REM COMMENT "ExactAudioCopy v1.0b3"
CATALOG 0000000000000
PERFORMER "Tommy Puett"
TITLE "Life Goes On"
FILE "01 Heart Attack .wav" WAVE
  TRACK 01 AUDIO
    TITLE "Heart Attack"
    PERFORMER "Tommy Puett"
    INDEX 01 00:00:00
FILE "02 Kiss You All Over .wav" WAVE
  TRACK 02 AUDIO
    TITLE "Kiss You All Over"
    PERFORMER "Tommy Puett"
    INDEX 01 00:00:00
FILE "03 Let's Communicate .wav" WAVE
  TRACK 03 AUDIO
    TITLE "Let's Communicate"
    PERFORMER "Tommy Puett"
    INDEX 01 00:00:00
  TRACK 04 AUDIO
    TITLE "Was it Real Love?"
    PERFORMER "Tommy Puett"
    INDEX 00 05:10:22
FILE "04 Was it Real Love .wav" WAVE
    INDEX 01 00:00:00
FILE "05 Will You Wear This Ring .wav" WAVE
  TRACK 05 AUDIO
    TITLE "Will You Wear This Ring?"
    PERFORMER "Tommy Puett"
    INDEX 01 00:00:00
  TRACK 06 AUDIO
    TITLE "Get Down Tonight"
    PERFORMER "Tommy Puett"
    INDEX 00 04:58:45
FILE "06 Get Down Tonight .wav" WAVE
    INDEX 01 00:00:00
FILE "07 Summer Dayz .wav" WAVE
  TRACK 07 AUDIO
    TITLE "Summer Dayz"
    PERFORMER "Tommy Puett"
    INDEX 01 00:00:00
FILE "08 Isn't It Time .wav" WAVE
  TRACK 08 AUDIO
    TITLE "Isn't It Time?"
    PERFORMER "Tommy Puett"
    INDEX 01 00:00:00
FILE "09 Girl on my Mind .wav" WAVE
  TRACK 09 AUDIO
    TITLE "Girl on my Mind"
    PERFORMER "Tommy Puett"
    INDEX 01 00:00:00
FILE "10 Love is War .wav" WAVE
  TRACK 10 AUDIO
    TITLE "Love is War"
    PERFORMER "Tommy Puett"
    INDEX 01 00:00:00
Правила, инструкции, FAQ!!!
Торрент  Добавлен [26 мар 2019, 18:48] Скачать торрент Магнет ссылка
Скачать торрент
[ Размер 14.75 КБ / Просмотров 1 ]

Статус
Проверен 
 
Размер  337.93 МБ
Приватный: Нет (DHT включён)
.torrent скачан  0
 


     Отправить личное сообщение
   
Страница 1 из 1
Показать сообщения за:  Поле сортировки  
Начать новую тему Ответить на тему


Сейчас этот форум просматривают: нет зарегистрированных пользователей и гости: 0


Вы не можете начинать темы
Вы не можете отвечать на сообщения
Вы не можете редактировать свои сообщения
Вы не можете удалять свои сообщения
Вы не можете добавлять вложения

Перейти:  
cron