Начать новую тему Ответить на тему
Статистика раздачи
Размер: 322.58 МБ | Добавлен: 26 мар 2019, 20:17 | Скачали: 0
Сидеров: 0  [0 байт/сек]    Личеров: 0  [0 байт/сек]
Пред. тема | След. тема 

Автор
Сообщение

СообщениеДобавлено: 26 мар 2019, 20:17 

Ответить с цитатой 

Tina Dico - In The Red
Жанр: Pop/Rock
Год выпуска диска: 2006
Производитель диска: USA
Аудио кодек: APE
Тип рипа: image+.cue
Битрейт аудио: lossless
Продолжительность: 52:22
Трэклист:
01. Losing
02. Warm Sand
03. Nobody's Man
04. The City
05. Give In
06. In The Red
07. Head Shop
08. Use Me
09. Room With A View
10. My Mirror
11. One
12. Long goodbye
Доп. информация: Очаровательная девушка из Дании, голос которой Вам может быть знаком по прошлым альбомам группы Zero 7, начала сольную карьеру. Настоящая фамилия Тины - Dickow, но англоязычные люди усматривают пошлые ассоциации, поэтому под настоящей фамилией её знают только в Дании. В целом альбом - приятный и качественный поп-рок с выразительным женским вокалом, продюссером альбома является Крис Поттер, который работал с Роллинг Стоунз.
Exact Audio Copy V0.99 prebeta 4 from 23. January 2008
Отчёт EAC об извлечении, выполненном 24. февраля 2009, 18:55
Tina Dico / In The Red
Дисковод: PLEXTOR DVDR PX-810SA Adapter: 2 ID: 0
Режим чтения : Достоверность
Использование точного потока : Да
Отключение кэша аудио : Да
Использование указателей C2 : Нет
Коррекция смещения при чтении : 48
Способность читать области Lead-in и Lead-out : Нет
Заполнение пропущенных сэмплов тишиной : Да
Удаление блоков с тишиной в начале и конце : Нет
При вычислениях CRC использовались нулевые сэмплы : Да
Интерфейс : Установленный внешний ASPI-интерфейс
Выходной формат : Внутренние WAV-операции
Формат сэмплов : 44.100 Гц; 16 бит; стерео
TOC извлечённого CD
Трек | Старт | Длительность | Начальный сектор | Конечный сектор
---------------------------------------------------------------------
1 | 0:00.00 | 3:51.68 | 0 | 17392
2 | 3:51.68 | 3:52.25 | 17393 | 34817
3 | 7:44.18 | 4:02.39 | 34818 | 53006
4 | 11:46.57 | 4:22.10 | 53007 | 72666
5 | 16:08.67 | 3:50.60 | 72667 | 89976
6 | 19:59.52 | 5:50.71 | 89977 | 116297
7 | 25:50.48 | 3:54.08 | 116298 | 133855
8 | 29:44.56 | 3:43.17 | 133856 | 150597
9 | 33:27.73 | 4:27.34 | 150598 | 170656
10 | 37:55.32 | 4:16.55 | 170657 | 189911
11 | 42:12.12 | 5:50.50 | 189912 | 216211
12 | 48:02.62 | 4:19.16 | 216212 | 235652
Характеристики диапазона извлечения и сообщения об ошибках
Выбранный диапазон
Имя файла I:\Tina Dico\Tina Dico - In The Red.wav
Пиковый уровень 99.6 %
Качество диапазона 100.0 %
CRC теста 359FAF13
CRC копии 359FAF13
Копирование... OK
Ошибок не произошло
Конец отчёта
1 file found
1 -===- I:\Tina Dico\Tina Dico - In The Red.ape
Extracted successfully
Conclusion: this track is CDDA with probability 100%
Tempfile successfully deleted.
Правила, инструкции, FAQ!!!
Торрент  Добавлен [26 мар 2019, 20:17] Скачать торрент Магнет ссылка
Скачать торрент
[ Размер 1.67 КБ / Просмотров 1 ]

Статус
Проверен 
 
Размер  322.58 МБ
Приватный: Нет (DHT включён)
.torrent скачан  0
 


     Отправить личное сообщение
   
Страница 1 из 1
Показать сообщения за:  Поле сортировки  
Начать новую тему Ответить на тему


Сейчас этот форум просматривают: нет зарегистрированных пользователей и гости: 0


Вы не можете начинать темы
Вы не можете отвечать на сообщения
Вы не можете редактировать свои сообщения
Вы не можете удалять свои сообщения
Вы не можете добавлять вложения

Перейти:  
cron