Начать новую тему Ответить на тему
Статистика раздачи
Размер: 226.39 МБ | Добавлен: 26 мар 2019, 20:48 | Скачали: 0
Сидеров: 0  [0 байт/сек]    Личеров: 0  [0 байт/сек]
Пред. тема | След. тема 

Автор
Сообщение

СообщениеДобавлено: 26 мар 2019, 20:48 

Ответить с цитатой 

Tim Finn / Escapade
Жанр: Pop - Rock
Страна-производитель диска: Australia
Год издания: (1983) 1994
Издатель (лейбл): Mushroom Records P/L
Номер по каталогу: MUSH32426.2
Страна: New Zealand
Аудиокодек: FLAC (*.flac)
Тип рипа: tracks+.cue
Битрейт аудио: lossless
Продолжительность: 0:36:53
Источник (релизер): clustert
Наличие сканов в содержимом раздачи: да
Треклист:
01. Fraction Too Much Friction [0:04:14.50]
02. Made My Day [0:03:25.45]
03. Not For Nothing [0:03:28.62]
04. In A Minor Key [0:03:46.50]
05. Grand Adventure [0:03:52.40]
06. Staring At The Embers [0:03:05.25]
07. Wait And See [0:04:01.48]
08. I Only Want To Know [0:04:05.10]
09. Growing Pains [0:03:02.32]
10. Through The Years [0:03:50.18]
Код:
Exact Audio Copy V1.0 beta 3 from 29. August 2011
Отчёт EAC об извлечении, выполненном 25. июля 2014, 19:50
Tim Finn / Escapade
Дисковод: ASUS    DRW-1814BLT   Adapter: 4  ID: 0
Режим чтения                 : Достоверность
Использование точного потока : Да
Отключение кэша аудио        : Да
Использование указателей C2  : Нет
Коррекция смещения при чтении                     : 6
Способность читать области Lead-in и Lead-out     : Нет
Заполнение пропущенных сэмплов тишиной            : Да
Удаление блоков с тишиной в начале и конце        : Нет
При вычислениях CRC использовались нулевые сэмплы : Да
Интерфейс                                         : Встроенный Win32-интерфейс для Win NT/2000
Обработка зазоров                                 : Добавлено к предыдущему треку
Выходной формат          : Пользовательский кодировщик
Выбранный битрейт        : 128 kBit/s
Качество                 : Высокий
Добавление ID3-тега      : Нет
Утилита сжатия           : C:\Program Files\Exact Audio Copy\Flac\flac.exe
Дополнительные параметры :  -V -8 -T "Genre=%genre%" -T "Artist=%artist%" -T "Title=%title%" -T "Album=%albumtitle%" -T "Date=%year%" -T "Tracknumber=%tracknr%" -T "Comment=EAC1.0b2 FLAC -8" %source%
TOC извлечённого CD
     Трек |   Старт  | Длительность | Начальный сектор | Конечный сектор
    ---------------------------------------------------------------------
       1  |  0:00.00 |    4:14.50   |           0      |      19099
       2  |  4:14.50 |    3:25.45   |       19100      |      34519
       3  |  7:40.20 |    3:28.62   |       34520      |      50181
       4  | 11:09.07 |    3:46.50   |       50182      |      67181
       5  | 14:55.57 |    3:52.40   |       67182      |      84621
       6  | 18:48.22 |    3:05.25   |       84622      |      98521
       7  | 21:53.47 |    4:01.48   |       98522      |     116644
       8  | 25:55.20 |    4:05.10   |      116645      |     135029
       9  | 30:00.30 |    3:02.32   |      135030      |     148711
      10  | 33:02.62 |    3:50.18   |      148712      |     165979
Трек  1
     Имя файла R:\Раздача 20\Tim Finn - (1983)1994 - Escapade\01 Fraction Too Much Friction.wav
     Длина предзазора  0:00:02.00
     Пиковый уровень 84.0 %
     Скорость извлечения 5.1 X
     Качество трека 100.0 %
     CRC теста FDFA8E89
     CRC копии FDFA8E89
     Копирование... OK
Трек  2
     Имя файла R:\Раздача 20\Tim Finn - (1983)1994 - Escapade\02 Made My Day.wav
     Пиковый уровень 100.0 %
     Скорость извлечения 5.6 X
     Качество трека 100.0 %
     CRC теста F27C4935
     CRC копии F27C4935
     Копирование... OK
Трек  3
     Имя файла R:\Раздача 20\Tim Finn - (1983)1994 - Escapade\03 Not For Nothing.wav
     Пиковый уровень 95.7 %
     Скорость извлечения 5.2 X
     Качество трека 99.9 %
     CRC теста 3ECFEF51
     CRC копии 3ECFEF51
     Копирование... OK
Трек  4
     Имя файла R:\Раздача 20\Tim Finn - (1983)1994 - Escapade\04 In A Minor Key.wav
     Пиковый уровень 100.0 %
     Скорость извлечения 6.4 X
     Качество трека 100.0 %
     CRC теста 3E17DF09
     CRC копии 3E17DF09
     Копирование... OK
Трек  5
     Имя файла R:\Раздача 20\Tim Finn - (1983)1994 - Escapade\05 Grand Adventure.wav
     Пиковый уровень 94.3 %
     Скорость извлечения 7.0 X
     Качество трека 100.0 %
     CRC теста D8B98F9F
     CRC копии D8B98F9F
     Копирование... OK
Трек  6
     Имя файла R:\Раздача 20\Tim Finn - (1983)1994 - Escapade\06 Staring At The Embers.wav
     Пиковый уровень 85.9 %
     Скорость извлечения 7.1 X
     Качество трека 100.0 %
     CRC теста B86F86A1
     CRC копии B86F86A1
     Копирование... OK
Трек  7
     Имя файла R:\Раздача 20\Tim Finn - (1983)1994 - Escapade\07 Wait And See.wav
     Пиковый уровень 88.2 %
     Скорость извлечения 7.6 X
     Качество трека 100.0 %
     CRC теста F3778697
     CRC копии F3778697
     Копирование... OK
Трек  8
     Имя файла R:\Раздача 20\Tim Finn - (1983)1994 - Escapade\08 I Only Want To Know.wav
     Пиковый уровень 100.0 %
     Скорость извлечения 8.0 X
     Качество трека 100.0 %
     CRC теста D29EA32F
     CRC копии D29EA32F
     Копирование... OK
Трек  9
     Имя файла R:\Раздача 20\Tim Finn - (1983)1994 - Escapade\09 Growing Pains.wav
     Пиковый уровень 72.9 %
     Скорость извлечения 8.0 X
     Качество трека 100.0 %
     CRC теста C855CD67
     CRC копии C855CD67
     Копирование... OK
Трек 10
     Имя файла R:\Раздача 20\Tim Finn - (1983)1994 - Escapade\10 Through The Years.wav
     Пиковый уровень 93.9 %
     Скорость извлечения 8.5 X
     Качество трека 100.0 %
     CRC теста B9815E73
     CRC копии B9815E73
     Копирование... OK
Ошибок не произошло
Конец отчёта
==== Контрольная сумма отчёта 272405931B3131BDD7B1B1955AF9D4EC52D859810C522A40D7C49B50A3320275 ====
Код:
REM GENRE Pop
REM DATE 1983
REM DISCID 8308A50A
REM COMMENT "ExactAudioCopy v1.0b3"
PERFORMER "Tim Finn"
TITLE "Escapade"
FILE "01 Fraction Too Much Friction.wav" WAVE
  TRACK 01 AUDIO
    TITLE "Fraction Too Much Friction"
    PERFORMER "Tim Finn"
    INDEX 01 00:00:00
FILE "02 Made My Day.wav" WAVE
  TRACK 02 AUDIO
    TITLE "Made My Day"
    PERFORMER "Tim Finn"
    INDEX 01 00:00:00
FILE "03 Not For Nothing.wav" WAVE
  TRACK 03 AUDIO
    TITLE "Not For Nothing"
    PERFORMER "Tim Finn"
    INDEX 01 00:00:00
FILE "04 In A Minor Key.wav" WAVE
  TRACK 04 AUDIO
    TITLE "In A Minor Key"
    PERFORMER "Tim Finn"
    INDEX 01 00:00:00
FILE "05 Grand Adventure.wav" WAVE
  TRACK 05 AUDIO
    TITLE "Grand Adventure"
    PERFORMER "Tim Finn"
    INDEX 01 00:00:00
FILE "06 Staring At The Embers.wav" WAVE
  TRACK 06 AUDIO
    TITLE "Staring At The Embers"
    PERFORMER "Tim Finn"
    INDEX 01 00:00:00
FILE "07 Wait And See.wav" WAVE
  TRACK 07 AUDIO
    TITLE "Wait And See"
    PERFORMER "Tim Finn"
    INDEX 01 00:00:00
FILE "08 I Only Want To Know.wav" WAVE
  TRACK 08 AUDIO
    TITLE "I Only Want To Know"
    PERFORMER "Tim Finn"
    INDEX 01 00:00:00
FILE "09 Growing Pains.wav" WAVE
  TRACK 09 AUDIO
    TITLE "Growing Pains"
    PERFORMER "Tim Finn"
    INDEX 01 00:00:00
FILE "10 Through The Years.wav" WAVE
  TRACK 10 AUDIO
    TITLE "Through The Years"
    PERFORMER "Tim Finn"
    INDEX 01 00:00:00
Правила, инструкции, FAQ!!!
Торрент  Добавлен [26 мар 2019, 20:48] Скачать торрент Магнет ссылка
Скачать торрент
[ Размер 19.29 КБ / Просмотров 3 ]

Статус
Проверен 
 
Размер  226.39 МБ
Приватный: Нет (DHT включён)
.torrent скачан  0
 


     Отправить личное сообщение
   
Страница 1 из 1
Показать сообщения за:  Поле сортировки  
Начать новую тему Ответить на тему


Сейчас этот форум просматривают: нет зарегистрированных пользователей и гости: 0


Вы не можете начинать темы
Вы не можете отвечать на сообщения
Вы не можете редактировать свои сообщения
Вы не можете удалять свои сообщения
Вы не можете добавлять вложения

Перейти:  
cron