Начать новую тему Ответить на тему
Статистика раздачи
Размер: 313.04 МБ | Добавлен: 26 мар 2019, 20:48 | Скачали: 0
Сидеров: 0  [0 байт/сек]    Личеров: 0  [0 байт/сек]
Пред. тема | След. тема 

Автор
Сообщение

СообщениеДобавлено: 26 мар 2019, 20:48 

Ответить с цитатой 

Tim Finn / Before & After
Жанр: Pop Rock
Страна-производитель диска: Holland
Год издания: 1993
Издатель (лейбл): Capitol
Номер по каталогу: 0777 7 94904 2 4
Страна: New Zealand
Аудиокодек: APE (*.ape)
Тип рипа: image+.cue
Битрейт аудио: lossless
Продолжительность: 49:35
Источник (релизер): avax
Наличие сканов в содержимом раздачи: нет
Треклист:
01 Hit The Ground Running 4:38
02 Protected 5:24
03 In Love With It All 3:21
04 Persuasion 3:53
05 Many's The Time (In Dublin) 4:27
06 Funny Way 2:54
07 Can't Do Both 4:51
08 In Your Sway 4:49
09 Strangeness And Charm 3:24
10 Always Never Now 3:57
11 Walk You Home 3:37
12 I Found It 4:16
Код:
Exact Audio Copy V1.0 beta 2 from 29. April 2011
EAC extraction logfile from 23. January 2012, 14:45
Tim Finn / Before & After
Used drive  : HL-DT-STDVDRAM GSA-H12L   Adapter: 0  ID: 0
Read mode               : Secure
Utilize accurate stream : Yes
Defeat audio cache      : Yes
Make use of C2 pointers : No
Read offset correction                      : 667
Overread into Lead-In and Lead-Out          : No
Fill up missing offset samples with silence : Yes
Delete leading and trailing silent blocks   : No
Null samples used in CRC calculations       : Yes
Used interface                              : Native Win32 interface for Win NT & 2000
Used output format              : User Defined Encoder
Selected bitrate                : 896 kBit/s
Quality                         : High
Add ID3 tag                     : No
Command line compressor         : C:\Program Files\FLAC\flac.exe
Additional command line options : -5 -T "Artist=%artist%" -T "Title=%title%" -T "Album=%albumtitle%" -T "Date=%year%" -T "Tracknumber=%tracknr%" -T "Genre=%genre%" %source% -o %dest%
TOC of the extracted CD
     Track |   Start  |  Length  | Start sector | End sector
    ---------------------------------------------------------
        1  |  0:00.32 |  4:41.33 |        32    |    21139
        2  |  4:41.65 |  5:24.15 |     21140    |    45454
        3  | 10:06.05 |  3:21.17 |     45455    |    60546
        4  | 13:27.22 |  3:53.25 |     60547    |    78046
        5  | 17:20.47 |  4:27.58 |     78047    |    98129
        6  | 21:48.30 |  2:53.27 |     98130    |   111131
        7  | 24:41.57 |  4:52.20 |    111132    |   133051
        8  | 29:34.02 |  4:48.40 |    133052    |   154691
        9  | 34:22.42 |  3:25.18 |    154692    |   170084
       10  | 37:47.60 |  3:56.52 |    170085    |   187836
       11  | 41:44.37 |  3:37.28 |    187837    |   204139
       12  | 45:21.65 |  4:13.22 |    204140    |   223136
Range status and errors
Selected range
     Filename I:\=== VINYL RIPS ===\=== EAC===\X FRESH RIP\Tim Finn - Before & After.wav
     Peak level 100.0 %
     Extraction speed 7.5 X
     Range quality 100.0 %
     Test CRC F3ECC0A1
     Copy CRC F3ECC0A1
     Copy OK
No errors occurred
AccurateRip summary
Track  1  accurately ripped (confidence 19)  [7A05F53C]  (AR v1)
Track  2  accurately ripped (confidence 20)  [8617ADD5]  (AR v1)
Track  3  accurately ripped (confidence 19)  [443B4FAD]  (AR v1)
Track  4  accurately ripped (confidence 19)  [DADB2A85]  (AR v1)
Track  5  accurately ripped (confidence 19)  [F3613C8F]  (AR v1)
Track  6  accurately ripped (confidence 19)  [08A90BC2]  (AR v1)
Track  7  accurately ripped (confidence 18)  [57392D62]  (AR v1)
Track  8  accurately ripped (confidence 18)  [2D2FCA51]  (AR v1)
Track  9  accurately ripped (confidence 19)  [C1FAF057]  (AR v1)
Track 10  accurately ripped (confidence 19)  [1AF668D2]  (AR v1)
Track 11  accurately ripped (confidence 18)  [E1F497CC]  (AR v1)
Track 12  accurately ripped (confidence 16)  [B395BA3C]  (AR v1)
All tracks accurately ripped
End of status report
==== Log checksum 82B7B6D9538B80C97F6C494A172DF42E57A357E9A035AB6630990B086467AB8B ====
Код:
AUDIOCHECKER v2.0 beta (build 457) - by Dester - opdester@freemail.hu
~~~~~~~~~~~~~~~~~~~~~~~~~~~~~~~~~~
-=== DO NOT EDIT THIS FILE! ===-
Path: ...\Tim Finn - Before & After {Europe 1993}
1 -=- Tim Finn - Before & After.wav -=- CDDA (100%)
265295476
Правила, инструкции, FAQ!!!
Торрент  Добавлен [26 мар 2019, 20:48] Скачать торрент Магнет ссылка
Скачать торрент
[ Размер 12.9 КБ / Просмотров 0 ]

Статус
Проверен 
 
Размер  313.04 МБ
Приватный: Нет (DHT включён)
.torrent скачан  0
 


     Отправить личное сообщение
   
Страница 1 из 1
Показать сообщения за:  Поле сортировки  
Начать новую тему Ответить на тему


Сейчас этот форум просматривают: нет зарегистрированных пользователей и гости: 0


Вы не можете начинать темы
Вы не можете отвечать на сообщения
Вы не можете редактировать свои сообщения
Вы не можете удалять свои сообщения
Вы не можете добавлять вложения

Перейти:  
cron