Начать новую тему Ответить на тему
Статистика раздачи
Размер: 651.51 МБ | Добавлен: 26 мар 2019, 22:36 | Скачали: 0
Сидеров: 1  [0 байт/сек]    Личеров: 0  [0 байт/сек]
Пред. тема | След. тема 

Автор
Сообщение

СообщениеДобавлено: 26 мар 2019, 22:36 

Ответить с цитатой 

The Veronicas
Жанр: Pop-Rock
Страна: Австалия
Производитель диска: США (Label - Sire)
Аудио кодек: FLAC (tracks+.cue)
Битрейт аудио: lossless
Источник: Собственный рип.
#777The Secret Life Of...
01 - 4ever
02 - Everything I'm Not
03 - When It All Falls Apart
04 - Revolution
05 - Secret
06 - Mouth Shut
07 - Leave Me Alone
08 - Speechless
09 - Heavily Broken
10 - I Could Get Used To This
11 - Nobody Wins
12 - Mother Mother

Catalog No.
: 49913-2
Год выпуска диска
: 2005
Продолжительность: 00:42:32
Код:
Exact Audio Copy V0.99 prebeta 4 from 23. January 2008
EAC extraction logfile from 16. May 2009, 20:09
The Veronicas / The Secret Life Of...
Used drive  : HL-DT-STDVDRRW GSA-H30L   Adapter: 2  ID: 0
Read mode               : Secure
Utilize accurate stream : Yes
Defeat audio cache      : Yes
Make use of C2 pointers : No
Read offset correction                      : 102
Overread into Lead-In and Lead-Out          : No
Fill up missing offset samples with silence : Yes
Delete leading and trailing silent blocks   : No
Null samples used in CRC calculations       : Yes
Used interface                              : Native Win32 interface for Win NT & 2000
Gap handling                                : Appended to previous track
Used output format              : User Defined Encoder
Selected bitrate                : 768 kBit/s
Quality                         : High
Add ID3 tag                     : Yes
Command line compressor         : D:\Program Files\Exact Audio Copy\FLAC\FLAC.EXE
Additional command line options : -6 -V -T "ARTIST=%a" -T "TITLE=%t" -T "ALBUM=%g" -T "DATE=%y" -T "TRACKNUMBER=%n" -T "GENRE=%m" -T "COMMENT=%e" %s -o %d
TOC of the extracted CD
     Track |   Start  |  Length  | Start sector | End sector
    ---------------------------------------------------------
        1  |  0:00.00 |  3:30.12 |         0    |    15761
        2  |  3:30.12 |  3:23.55 |     15762    |    31041
        3  |  6:53.67 |  3:14.48 |     31042    |    45639
        4  | 10:08.40 |  3:06.43 |     45640    |    59632
        5  | 13:15.08 |  3:34.31 |     59633    |    75713
        6  | 16:49.39 |  3:39.10 |     75714    |    92148
        7  | 20:28.49 |  3:31.02 |     92149    |   107975
        8  | 23:59.51 |  3:57.73 |    107976    |   125823
        9  | 27:57.49 |  4:17.33 |    125824    |   145131
       10  | 32:15.07 |  3:16.21 |    145132    |   159852
       11  | 35:31.28 |  3:53.26 |    159853    |   177353
       12  | 39:24.54 |  3:07.31 |    177354    |   191409
Track  1
     Filename C:\NEW\01 - 4ever.wav
     Pre-gap length  0:00:02.00
     Peak level 94.6 %
     Track quality 99.9 %
     Copy CRC 74586A67
     Cannot be verified as accurate (confidence 16)  [1DE7DB07], AccurateRip returned [4A0C1ABD]
     Copy OK
Track  2
     Filename C:\NEW\02 - Everything I'm Not.wav
     Pre-gap length  0:00:00.30
     Peak level 95.9 %
     Track quality 100.0 %
     Copy CRC CCDA3B89
     Cannot be verified as accurate (confidence 16)  [6E4339E4], AccurateRip returned [35ECF815]
     Copy OK
Track  3
     Filename C:\NEW\03 - When It All Falls Apart.wav
     Pre-gap length  0:00:01.03
     Peak level 94.6 %
     Track quality 100.0 %
     Copy CRC 0C272690
     Cannot be verified as accurate (confidence 16)  [9D595B4E], AccurateRip returned [97202967]
     Copy OK
Track  4
     Filename C:\NEW\04 - Revolution.wav
     Pre-gap length  0:00:00.56
     Peak level 96.0 %
     Track quality 100.0 %
     Copy CRC E08B951E
     Cannot be verified as accurate (confidence 14)  [65525880], AccurateRip returned [FA7625C6]
     Copy OK
Track  5
     Filename C:\NEW\05 - Secret.wav
     Pre-gap length  0:00:01.74
     Peak level 80.6 %
     Track quality 100.0 %
     Copy CRC 4790714F
     Cannot be verified as accurate (confidence 15)  [B27C6457], AccurateRip returned [75032D3D]
     Copy OK
Track  6
     Filename C:\NEW\06 - Mouth Shut.wav
     Pre-gap length  0:00:01.30
     Peak level 100.0 %
     Track quality 99.9 %
     Copy CRC 6ACD4D67
     Cannot be verified as accurate (confidence 16)  [A438644C], AccurateRip returned [D0B6133E]
     Copy OK
Track  7
     Filename C:\NEW\07 - Leave Me Alone.wav
     Pre-gap length  0:00:01.41
     Peak level 98.8 %
     Track quality 100.0 %
     Copy CRC AC7806A9
     Cannot be verified as accurate (confidence 16)  [B8F307DB], AccurateRip returned [B510B9B2]
     Copy OK
Track  8
     Filename C:\NEW\08 - Speechless.wav
     Pre-gap length  0:00:01.73
     Peak level 100.0 %
     Track quality 100.0 %
     Copy CRC 8E323984
     Cannot be verified as accurate (confidence 15)  [2D39B9C2], AccurateRip returned [F4DD396B]
     Copy OK
Track  9
     Filename C:\NEW\09 - Heavily Broken.wav
     Pre-gap length  0:00:01.43
     Peak level 93.9 %
     Track quality 100.0 %
     Copy CRC D6B55863
     Cannot be verified as accurate (confidence 16)  [CC1C3C09], AccurateRip returned [52F71378]
     Copy OK
Track 10
     Filename C:\NEW\10 - I Could Get Used To This.wav
     Pre-gap length  0:00:01.03
     Peak level 92.7 %
     Track quality 100.0 %
     Copy CRC 9A11CA12
     Cannot be verified as accurate (confidence 15)  [78CA9F70], AccurateRip returned [DA592CAE]
     Copy OK
Track 11
     Filename C:\NEW\11 - Nobody Wins.wav
     Pre-gap length  0:00:01.24
     Peak level 98.8 %
     Track quality 100.0 %
     Copy CRC 9D3946A2
     Cannot be verified as accurate (confidence 15)  [D58143B0], AccurateRip returned [371D0D66]
     Copy OK
Track 12
     Filename C:\NEW\12 - Mother Mother.wav
     Pre-gap length  0:00:01.73
     Peak level 98.8 %
     Track quality 100.0 %
     Copy CRC CEED3189
     Cannot be verified as accurate (confidence 16)  [D26795B6], AccurateRip returned [76DBCA21]
     Copy OK
No tracks could be verified as accurate
You may have a different pressing from the one(s) in the database
No errors occurred
End of status report
Код:
REM GENRE Pop
REM DATE 2005
REM DISCID 8709F80C
REM COMMENT "ExactAudioCopy v0.99pb4"
PERFORMER "The Veronicas"
TITLE "The Secret Life Of..."
FILE "01 - 4ever.wav" WAVE
  TRACK 01 AUDIO
    TITLE "4ever"
    PERFORMER "The Veronicas"
    INDEX 01 00:00:00
  TRACK 02 AUDIO
    TITLE "Everything I'm Not"
    PERFORMER "The Veronicas"
    INDEX 00 03:29:57
FILE "02 - Everything I'm Not.wav" WAVE
    INDEX 01 00:00:00
  TRACK 03 AUDIO
    TITLE "When It All Falls Apart"
    PERFORMER "The Veronicas"
    INDEX 00 03:22:52
FILE "03 - When It All Falls Apart.wav" WAVE
    INDEX 01 00:00:00
  TRACK 04 AUDIO
    TITLE "Revolution"
    PERFORMER "The Veronicas"
    INDEX 00 03:13:67
FILE "04 - Revolution.wav" WAVE
    INDEX 01 00:00:00
  TRACK 05 AUDIO
    TITLE "Secret"
    PERFORMER "The Veronicas"
    INDEX 00 03:04:44
FILE "05 - Secret.wav" WAVE
    INDEX 01 00:00:00
  TRACK 06 AUDIO
    TITLE "Mouth Shut"
    PERFORMER "The Veronicas"
    INDEX 00 03:33:01
FILE "06 - Mouth Shut.wav" WAVE
    INDEX 01 00:00:00
  TRACK 07 AUDIO
    TITLE "Leave Me Alone"
    PERFORMER "The Veronicas"
    INDEX 00 03:37:44
FILE "07 - Leave Me Alone.wav" WAVE
    INDEX 01 00:00:00
  TRACK 08 AUDIO
    TITLE "Speechless"
    PERFORMER "The Veronicas"
    INDEX 00 03:29:04
FILE "08 - Speechless.wav" WAVE
    INDEX 01 00:00:00
  TRACK 09 AUDIO
    TITLE "Heavily Broken"
    PERFORMER "The Veronicas"
    INDEX 00 03:56:30
FILE "09 - Heavily Broken.wav" WAVE
    INDEX 01 00:00:00
  TRACK 10 AUDIO
    TITLE "I Could Get Used To This"
    PERFORMER "The Veronicas"
    INDEX 00 04:16:30
FILE "10 - I Could Get Used To This.wav" WAVE
    INDEX 01 00:00:00
  TRACK 11 AUDIO
    TITLE "Nobody Wins"
    PERFORMER "The Veronicas"
    INDEX 00 03:14:72
FILE "11 - Nobody Wins.wav" WAVE
    INDEX 01 00:00:00
  TRACK 12 AUDIO
    TITLE "Mother Mother"
    PERFORMER "The Veronicas"
    INDEX 00 03:51:28
FILE "12 - Mother Mother.wav" WAVE
    INDEX 01 00:00:00
#777Hook Me Up
01 - Untouched
02 - Hook me up
03 - This is how it feels
04 - This love
05 - I can't stay away
06 - Take me on the floor
07 - I don't wanna wait
08 - Popular
09 - Revenge is sweeter (than you ever were)
10 - Someone wake me up
11 - All I have
12 - In another life
13 - Goodbye to you (US bonus)

Catalog No.
: 395260-2
Год выпуска диска
: 2007
Продолжительность: 00:44:34
Код:
Exact Audio Copy V0.99 prebeta 4 from 23. January 2008
EAC extraction logfile from 16. May 2009, 18:29
The Veronicas / Hook me up
Used drive  : HL-DT-STDVDRRW GSA-H30L   Adapter: 2  ID: 0
Read mode               : Secure
Utilize accurate stream : Yes
Defeat audio cache      : Yes
Make use of C2 pointers : No
Read offset correction                      : 102
Overread into Lead-In and Lead-Out          : No
Fill up missing offset samples with silence : Yes
Delete leading and trailing silent blocks   : No
Null samples used in CRC calculations       : Yes
Used interface                              : Native Win32 interface for Win NT & 2000
Gap handling                                : Appended to previous track
Used output format              : User Defined Encoder
Selected bitrate                : 768 kBit/s
Quality                         : High
Add ID3 tag                     : Yes
Command line compressor         : D:\Program Files\Exact Audio Copy\FLAC\FLAC.EXE
Additional command line options : -6 -V -T "ARTIST=%a" -T "TITLE=%t" -T "ALBUM=%g" -T "DATE=%y" -T "TRACKNUMBER=%n" -T "GENRE=%m" -T "COMMENT=%e" %s -o %d
TOC of the extracted CD
     Track |   Start  |  Length  | Start sector | End sector
    ---------------------------------------------------------
        1  |  0:00.00 |  4:14.27 |         0    |    19076
        2  |  4:14.27 |  2:55.68 |     19077    |    32269
        3  |  7:10.20 |  4:11.60 |     32270    |    51154
        4  | 11:22.05 |  2:59.01 |     51155    |    64580
        5  | 14:21.06 |  3:26.35 |     64581    |    80065
        6  | 17:47.41 |  3:30.36 |     80066    |    95851
        7  | 21:18.02 |  2:59.01 |     95852    |   109277
        8  | 24:17.03 |  2:44.52 |    109278    |   121629
        9  | 27:01.55 |  3:43.16 |    121630    |   138370
       10  | 30:44.71 |  3:35.07 |    138371    |   154502
       11  | 34:20.03 |  3:14.22 |    154503    |   169074
       12  | 37:34.25 |  3:48.21 |    169075    |   186195
       13  | 41:22.46 |  3:12.07 |    186196    |   200602
Track  1
     Filename C:\NEW\01 - Untouched.wav
     Pre-gap length  0:00:02.00
     Peak level 100.0 %
     Track quality 99.9 %
     Copy CRC 6CB75801
     Cannot be verified as accurate (confidence 5)  [F458E6BC], AccurateRip returned [1B99ED8A]
     Copy OK
Track  2
     Filename C:\NEW\02 - Hook me up.wav
     Peak level 100.0 %
     Track quality 100.0 %
     Copy CRC 9A034830
     Cannot be verified as accurate (confidence 5)  [9CFA7819], AccurateRip returned [67611916]
     Copy OK
Track  3
     Filename C:\NEW\03 - This is how it feels.wav
     Peak level 99.9 %
     Track quality 100.0 %
     Copy CRC C436830C
     Cannot be verified as accurate (confidence 5)  [25672D2B], AccurateRip returned [0C19C737]
     Copy OK
Track  4
     Filename C:\NEW\04 - This love.wav
     Peak level 100.0 %
     Track quality 100.0 %
     Copy CRC 479C4873
     Cannot be verified as accurate (confidence 5)  [E4687CE7], AccurateRip returned [4BD3AF48]
     Copy OK
Track  5
     Filename C:\NEW\05 - I can't stay away.wav
     Pre-gap length  0:00:00.16
     Peak level 98.8 %
     Track quality 100.0 %
     Copy CRC 55B5D1FE
     Cannot be verified as accurate (confidence 5)  [910A3B3D], AccurateRip returned [A7CBD7ED]
     Copy OK
Track  6
     Filename C:\NEW\06 - Take me on the floor.wav
     Peak level 98.6 %
     Track quality 100.0 %
     Copy CRC 179F8559
     Cannot be verified as accurate (confidence 5)  [948E6DA3], AccurateRip returned [D1AADCC8]
     Copy OK
Track  7
     Filename C:\NEW\07 - I don't wanna wait.wav
     Peak level 99.9 %
     Track quality 100.0 %
     Copy CRC 1982E284
     Cannot be verified as accurate (confidence 5)  [01049F29], AccurateRip returned [E96F29AA]
     Copy OK
Track  8
     Filename C:\NEW\08 - Popular.wav
     Peak level 100.0 %
     Track quality 99.9 %
     Copy CRC 392F2757
     Cannot be verified as accurate (confidence 5)  [985C1BEE], AccurateRip returned [072BFE60]
     Copy OK
Track  9
     Filename C:\NEW\09 - Revenge is sweeter (than you ever were).wav
     Pre-gap length  0:00:02.43
     Peak level 100.0 %
     Track quality 100.0 %
     Copy CRC 8977F847
     Cannot be verified as accurate (confidence 5)  [4FCCF3EF], AccurateRip returned [9EA6B3B0]
     Copy OK
Track 10
     Filename C:\NEW\10 - Someone wake me up.wav
     Pre-gap length  0:00:00.69
     Peak level 100.0 %
     Track quality 100.0 %
     Copy CRC 4AFC821F
     Cannot be verified as accurate (confidence 5)  [9D605B9C], AccurateRip returned [450222C5]
     Copy OK
Track 11
     Filename C:\NEW\11 - All I have.wav
     Pre-gap length  0:00:01.74
     Peak level 100.0 %
     Track quality 100.0 %
     Copy CRC 94DC0A17
     Cannot be verified as accurate (confidence 5)  [6C549B8D], AccurateRip returned [FDA755A3]
     Copy OK
Track 12
     Filename C:\NEW\12 - In another life.wav
     Pre-gap length  0:00:02.17
     Peak level 100.0 %
     Track quality 100.0 %
     Copy CRC AD295048
     Cannot be verified as accurate (confidence 5)  [310AB6D2], AccurateRip returned [ECA214A5]
     Copy OK
Track 13
     Filename C:\NEW\13 - Goodbye to you.wav
     Pre-gap length  0:00:01.08
     Peak level 99.9 %
     Track quality 100.0 %
     Copy CRC 4057944E
     Cannot be verified as accurate (confidence 5)  [DD508215], AccurateRip returned [A14CB7E2]
     Copy OK
No tracks could be verified as accurate
You may have a different pressing from the one(s) in the database
No errors occurred
End of status report
Код:
REM GENRE Pop
REM DATE 2007
REM DISCID B30A720D
REM COMMENT "ExactAudioCopy v0.99pb4"
PERFORMER "The Veronicas"
TITLE "Hook me up"
FILE "01 - Untouched.wav" WAVE
  TRACK 01 AUDIO
    TITLE "Untouched"
    PERFORMER "The Veronicas"
    INDEX 01 00:00:00
FILE "02 - Hook me up.wav" WAVE
  TRACK 02 AUDIO
    TITLE "Hook me up"
    PERFORMER "The Veronicas"
    INDEX 01 00:00:00
FILE "03 - This is how it feels.wav" WAVE
  TRACK 03 AUDIO
    TITLE "This is how it feels"
    PERFORMER "The Veronicas"
    INDEX 01 00:00:00
FILE "04 - This love.wav" WAVE
  TRACK 04 AUDIO
    TITLE "This love"
    PERFORMER "The Veronicas"
    INDEX 01 00:00:00
  TRACK 05 AUDIO
    TITLE "I can't stay away"
    PERFORMER "The Veronicas"
    INDEX 00 02:58:60
FILE "05 - I can't stay away.wav" WAVE
    INDEX 01 00:00:00
FILE "06 - Take me on the floor.wav" WAVE
  TRACK 06 AUDIO
    TITLE "Take me on the floor"
    PERFORMER "The Veronicas"
    INDEX 01 00:00:00
FILE "07 - I don't wanna wait.wav" WAVE
  TRACK 07 AUDIO
    TITLE "I don't wanna wait"
    PERFORMER "The Veronicas"
    INDEX 01 00:00:00
FILE "08 - Popular.wav" WAVE
  TRACK 08 AUDIO
    TITLE "Popular"
    PERFORMER "The Veronicas"
    INDEX 01 00:00:00
  TRACK 09 AUDIO
    TITLE "Revenge is sweeter (than you ever were)"
    PERFORMER "The Veronicas"
    INDEX 00 02:42:09
FILE "09 - Revenge is sweeter (than you ever were).wav" WAVE
    INDEX 01 00:00:00
  TRACK 10 AUDIO
    TITLE "Someone wake me up"
    PERFORMER "The Veronicas"
    INDEX 00 03:42:22
FILE "10 - Someone wake me up.wav" WAVE
    INDEX 01 00:00:00
  TRACK 11 AUDIO
    TITLE "All I have"
    PERFORMER "The Veronicas"
    INDEX 00 03:33:08
FILE "11 - All I have.wav" WAVE
    INDEX 01 00:00:00
  TRACK 12 AUDIO
    TITLE "In another life"
    PERFORMER "The Veronicas"
    INDEX 00 03:12:05
FILE "12 - In another life.wav" WAVE
    INDEX 01 00:00:00
  TRACK 13 AUDIO
    TITLE "Goodbye to you"
    PERFORMER "The Veronicas"
    INDEX 00 03:47:13
FILE "13 - Goodbye to you.wav" WAVE
    INDEX 01 00:00:00
Правила, инструкции, FAQ!!!
Торрент  Добавлен [26 мар 2019, 22:36] Скачать торрент Магнет ссылка
Скачать торрент
[ Размер 15.42 КБ / Просмотров 11 ]

Статус
Проверен 
 
Размер  651.51 МБ
Приватный: Нет (DHT включён)
.torrent скачан  0
 


     Отправить личное сообщение
   
Страница 1 из 1
Показать сообщения за:  Поле сортировки  
Начать новую тему Ответить на тему


Сейчас этот форум просматривают: нет зарегистрированных пользователей и гости: 0


Вы не можете начинать темы
Вы не можете отвечать на сообщения
Вы не можете редактировать свои сообщения
Вы не можете удалять свои сообщения
Вы не можете добавлять вложения

Перейти:  
cron