Начать новую тему Ответить на тему
Статистика раздачи
Размер: 310.16 МБ | Добавлен: 26 мар 2019, 19:18 | Скачали: 0
Сидеров: 0  [0 байт/сек]    Личеров: 0  [0 байт/сек]
Пред. тема | След. тема 

Автор
Сообщение

СообщениеДобавлено: 26 мар 2019, 19:18 

Ответить с цитатой 

The Rocket Summer / Zoetic
Жанр: Pop Rock
Носитель: CD
Год издания: 2016
Издатель (лейбл): Aviate Records
Номер по каталогу: AR009
Страна исполнителя (группы): USA
Аудиокодек: FLAC (*.flac)
Тип рипа: tracks+.cue
Битрейт аудио: lossless
Продолжительность: 00:40:52
Источник (релизер): What.cd
Наличие сканов в содержимом раздачи: нет
Треклист:
01. Cold War
02. Same Air
03. UNI
04. Help Me Out
05. Get Over It
06. White Fireworks
07. You Are, You Are
08. FL, CA
09. Rule Of Thirds Kind Of Life
10. Sharks
11. Emergency Landings
Код:
X Lossless Decoder version 20151214 (149.1)
XLD extraction logfile from 2016-02-24 21:37:03 -0700
The Rocket Summer / Zoetic
Used drive : TSSTcorp BDDVDW SE-506AB (revision TS01)
Media type : Pressed CD
Ripper mode             : XLD Secure Ripper
Disable audio cache     : OK for the drive with a cache less than 1375KiB
Make use of C2 pointers : NO
Read offset correction  : 6
Max retry count         : 20
Gap status              : Analyzed, Appended (except HTOA)
TOC of the extracted CD
     Track |   Start  |  Length  | Start sector | End sector
    ---------------------------------------------------------
        1  | 00:00:00 | 02:59:24 |         0    |    13448
        2  | 02:59:24 | 03:58:09 |     13449    |    31307
        3  | 06:57:33 | 03:19:27 |     31308    |    46259
        4  | 10:16:60 | 02:44:21 |     46260    |    58580
        5  | 13:01:06 | 04:09:21 |     58581    |    77276
        6  | 17:10:27 | 03:29:60 |     77277    |    93011
        7  | 20:40:12 | 04:24:31 |     93012    |   112842
        8  | 25:04:43 | 03:49:74 |    112843    |   130091
        9  | 28:54:42 | 03:22:06 |    130092    |   145247
       10  | 32:16:48 | 04:16:40 |    145248    |   164487
       11  | 36:33:13 | 04:15:29 |    164488    |   183641
AccurateRip Summary
    Disc not found in AccurateRip DB.
All Tracks
    Album gain               : -10.21 dB
    Peak                     : 0.977234
    Statistics
        Read error                           : 0
        Jitter error (maybe fixed)           : 0
        Retry sector count                   : 0
        Damaged sector count                 : 0
Track 01
    Filename : /Volumes/8TB_Backup/Hard Drive Backups/Media Hard Drive/Audio/FLAC CD Rips/The Rocket Summer - Zoetic (2016) [FLAC]/01 Cold War.flac
    Pre-gap length : 00:02:00
    Track gain               : -9.89 dB
    Peak                     : 0.977203
    CRC32 hash (test run)    : C1D85B51
    CRC32 hash               : C1D85B51
    CRC32 hash (skip zero)   : 0AFACDDA
    AccurateRip v1 signature : 39ED271B
    AccurateRip v2 signature : DCC0B07D
        ->Track not present in AccurateRip database.
    Statistics
        Read error                           : 0
        Jitter error (maybe fixed)           : 0
        Retry sector count                   : 0
        Damaged sector count                 : 0
Track 02
    Filename : /Volumes/8TB_Backup/Hard Drive Backups/Media Hard Drive/Audio/FLAC CD Rips/The Rocket Summer - Zoetic (2016) [FLAC]/02 Same Air.flac
    Track gain               : -10.39 dB
    Peak                     : 0.977203
    CRC32 hash (test run)    : D70505B0
    CRC32 hash               : D70505B0
    CRC32 hash (skip zero)   : F3DDABBE
    AccurateRip v1 signature : 1C617B4D
    AccurateRip v2 signature : 2CE4C305
        ->Track not present in AccurateRip database.
    Statistics
        Read error                           : 0
        Jitter error (maybe fixed)           : 0
        Retry sector count                   : 0
        Damaged sector count                 : 0
Track 03
    Filename : /Volumes/8TB_Backup/Hard Drive Backups/Media Hard Drive/Audio/FLAC CD Rips/The Rocket Summer - Zoetic (2016) [FLAC]/03 UNI.flac
    Track gain               : -10.52 dB
    Peak                     : 0.977234
    CRC32 hash (test run)    : 0DC8A58B
    CRC32 hash               : 0DC8A58B
    CRC32 hash (skip zero)   : 5C67A348
    AccurateRip v1 signature : 0A9D3E93
    AccurateRip v2 signature : 0AAA28DD
        ->Track not present in AccurateRip database.
    Statistics
        Read error                           : 0
        Jitter error (maybe fixed)           : 0
        Retry sector count                   : 0
        Damaged sector count                 : 0
Track 04
    Filename : /Volumes/8TB_Backup/Hard Drive Backups/Media Hard Drive/Audio/FLAC CD Rips/The Rocket Summer - Zoetic (2016) [FLAC]/04 Help Me Out.flac
    Track gain               : -9.54 dB
    Peak                     : 0.977203
    CRC32 hash (test run)    : 63058C9A
    CRC32 hash               : 63058C9A
    CRC32 hash (skip zero)   : 0D62C024
    AccurateRip v1 signature : 9FABE165
    AccurateRip v2 signature : D904C602
        ->Track not present in AccurateRip database.
    Statistics
        Read error                           : 0
        Jitter error (maybe fixed)           : 0
        Retry sector count                   : 0
        Damaged sector count                 : 0
Track 05
    Filename : /Volumes/8TB_Backup/Hard Drive Backups/Media Hard Drive/Audio/FLAC CD Rips/The Rocket Summer - Zoetic (2016) [FLAC]/05 Get Over It.flac
    Track gain               : -10.69 dB
    Peak                     : 0.977234
    CRC32 hash (test run)    : D01DB047
    CRC32 hash               : D01DB047
    CRC32 hash (skip zero)   : 380CBA4F
    AccurateRip v1 signature : 88290FF8
    AccurateRip v2 signature : 727F2925
        ->Track not present in AccurateRip database.
    Statistics
        Read error                           : 0
        Jitter error (maybe fixed)           : 0
        Retry sector count                   : 0
        Damaged sector count                 : 0
Track 06
    Filename : /Volumes/8TB_Backup/Hard Drive Backups/Media Hard Drive/Audio/FLAC CD Rips/The Rocket Summer - Zoetic (2016) [FLAC]/06 White Fireworks.flac
    Track gain               : -10.92 dB
    Peak                     : 0.977203
    CRC32 hash (test run)    : F1396326
    CRC32 hash               : F1396326
    CRC32 hash (skip zero)   : D543D8F8
    AccurateRip v1 signature : 933EB142
    AccurateRip v2 signature : F7B8373F
        ->Track not present in AccurateRip database.
    Statistics
        Read error                           : 0
        Jitter error (maybe fixed)           : 0
        Retry sector count                   : 0
        Damaged sector count                 : 0
Track 07
    Filename : /Volumes/8TB_Backup/Hard Drive Backups/Media Hard Drive/Audio/FLAC CD Rips/The Rocket Summer - Zoetic (2016) [FLAC]/07 You Are, You Are.flac
    Track gain               : -8.61 dB
    Peak                     : 0.977203
    CRC32 hash (test run)    : CE1895C2
    CRC32 hash               : CE1895C2
    CRC32 hash (skip zero)   : 644A935F
    AccurateRip v1 signature : 686E4B3A
    AccurateRip v2 signature : 5E1A179A
        ->Track not present in AccurateRip database.
    Statistics
        Read error                           : 0
        Jitter error (maybe fixed)           : 0
        Retry sector count                   : 0
        Damaged sector count                 : 0
Track 08
    Filename : /Volumes/8TB_Backup/Hard Drive Backups/Media Hard Drive/Audio/FLAC CD Rips/The Rocket Summer - Zoetic (2016) [FLAC]/08 FL, CA.flac
    Track gain               : -9.93 dB
    Peak                     : 0.977203
    CRC32 hash (test run)    : 4328B241
    CRC32 hash               : 4328B241
    CRC32 hash (skip zero)   : 4AAE3860
    AccurateRip v1 signature : C9EF993D
    AccurateRip v2 signature : F0FF0A04
        ->Track not present in AccurateRip database.
    Statistics
        Read error                           : 0
        Jitter error (maybe fixed)           : 0
        Retry sector count                   : 0
        Damaged sector count                 : 0
Track 09
    Filename : /Volumes/8TB_Backup/Hard Drive Backups/Media Hard Drive/Audio/FLAC CD Rips/The Rocket Summer - Zoetic (2016) [FLAC]/09 Rule Of Thirds Kind Of Life.flac
    Track gain               : -10.49 dB
    Peak                     : 0.977203
    CRC32 hash (test run)    : E00B8EEA
    CRC32 hash               : E00B8EEA
    CRC32 hash (skip zero)   : EFC0D6ED
    AccurateRip v1 signature : 9A20D2E9
    AccurateRip v2 signature : 81DE886B
        ->Track not present in AccurateRip database.
    Statistics
        Read error                           : 0
        Jitter error (maybe fixed)           : 0
        Retry sector count                   : 0
        Damaged sector count                 : 0
Track 10
    Filename : /Volumes/8TB_Backup/Hard Drive Backups/Media Hard Drive/Audio/FLAC CD Rips/The Rocket Summer - Zoetic (2016) [FLAC]/10 Sharks.flac
    Track gain               : -8.86 dB
    Peak                     : 0.977203
    CRC32 hash (test run)    : 8C61CC9D
    CRC32 hash               : 8C61CC9D
    CRC32 hash (skip zero)   : C01B92D1
    AccurateRip v1 signature : C44103BA
    AccurateRip v2 signature : 77FA31AA
        ->Track not present in AccurateRip database.
    Statistics
        Read error                           : 0
        Jitter error (maybe fixed)           : 0
        Retry sector count                   : 0
        Damaged sector count                 : 0
Track 11
    Filename : /Volumes/8TB_Backup/Hard Drive Backups/Media Hard Drive/Audio/FLAC CD Rips/The Rocket Summer - Zoetic (2016) [FLAC]/11 Emergency Landings.flac
    Track gain               : -8.98 dB
    Peak                     : 0.977234
    CRC32 hash (test run)    : 3DAFEC7B
    CRC32 hash               : 3DAFEC7B
    CRC32 hash (skip zero)   : 483414D5
    AccurateRip v1 signature : 456016A5
    AccurateRip v2 signature : 2A87EA5C
        ->Track not present in AccurateRip database.
    Statistics
        Read error                           : 0
        Jitter error (maybe fixed)           : 0
        Retry sector count                   : 0
        Damaged sector count                 : 0
No errors occurred
End of status report
-----BEGIN XLD SIGNATURE-----
VE7rQHjlcypUtcvE8Tno1y0ETPRmxi3JMNyMyIpUI6nMKt2DrAH1yp93U0IuiYpwEngS3SocsdiPNVwnCyTkTDYgXInCj.mZkUt2y1m
-----END XLD SIGNATURE-----
Код:
TITLE "Zoetic"
PERFORMER "The Rocket Summer"
CATALOG 0735255300246
REM GENRE "Punk"
REM DATE "2016"
REM DISCNUMBER 1
REM TOTALDISCS 1
REM DISCID 8D09900B
REM REPLAYGAIN_ALBUM_GAIN -10.21 dB
REM REPLAYGAIN_ALBUM_PEAK 0.977234
FILE "01 Cold War.flac" WAVE
  TRACK 01 AUDIO
    TITLE "Cold War"
    ISRC QMQPV1500001
    FLAGS DCP
    REM REPLAYGAIN_TRACK_GAIN -9.89 dB
    REM REPLAYGAIN_TRACK_PEAK 0.977203
    INDEX 01 00:00:00
FILE "02 Same Air.flac" WAVE
  TRACK 02 AUDIO
    TITLE "Same Air"
    ISRC QMQPV1500002
    FLAGS DCP
    REM REPLAYGAIN_TRACK_GAIN -10.39 dB
    REM REPLAYGAIN_TRACK_PEAK 0.977203
    INDEX 01 00:00:00
FILE "03 UNI.flac" WAVE
  TRACK 03 AUDIO
    TITLE "UNI"
    ISRC QMQPV1500003
    FLAGS DCP
    REM REPLAYGAIN_TRACK_GAIN -10.52 dB
    REM REPLAYGAIN_TRACK_PEAK 0.977234
    INDEX 01 00:00:00
FILE "04 Help Me Out.flac" WAVE
  TRACK 04 AUDIO
    TITLE "Help Me Out"
    ISRC QMQPV1500004
    FLAGS DCP
    REM REPLAYGAIN_TRACK_GAIN -9.54 dB
    REM REPLAYGAIN_TRACK_PEAK 0.977203
    INDEX 01 00:00:00
FILE "05 Get Over It.flac" WAVE
  TRACK 05 AUDIO
    TITLE "Get Over It"
    ISRC QMQPV1500005
    FLAGS DCP
    REM REPLAYGAIN_TRACK_GAIN -10.69 dB
    REM REPLAYGAIN_TRACK_PEAK 0.977234
    INDEX 01 00:00:00
FILE "06 White Fireworks.flac" WAVE
  TRACK 06 AUDIO
    TITLE "White Fireworks"
    ISRC QMQPV1500006
    FLAGS DCP
    REM REPLAYGAIN_TRACK_GAIN -10.92 dB
    REM REPLAYGAIN_TRACK_PEAK 0.977203
    INDEX 01 00:00:00
FILE "07 You Are, You Are.flac" WAVE
  TRACK 07 AUDIO
    TITLE "You Are, You Are"
    ISRC QMQPV1500007
    FLAGS DCP
    REM REPLAYGAIN_TRACK_GAIN -8.61 dB
    REM REPLAYGAIN_TRACK_PEAK 0.977203
    INDEX 01 00:00:00
FILE "08 FL, CA.flac" WAVE
  TRACK 08 AUDIO
    TITLE "FL, CA"
    ISRC QMQPV1500008
    FLAGS DCP
    REM REPLAYGAIN_TRACK_GAIN -9.93 dB
    REM REPLAYGAIN_TRACK_PEAK 0.977203
    INDEX 01 00:00:00
FILE "09 Rule Of Thirds Kind Of Life.flac" WAVE
  TRACK 09 AUDIO
    TITLE "Rule Of Thirds Kind Of Life"
    ISRC QMQPV1500009
    FLAGS DCP
    REM REPLAYGAIN_TRACK_GAIN -10.49 dB
    REM REPLAYGAIN_TRACK_PEAK 0.977203
    INDEX 01 00:00:00
FILE "10 Sharks.flac" WAVE
  TRACK 10 AUDIO
    TITLE "Sharks"
    ISRC QMQPV1500010
    FLAGS DCP
    REM REPLAYGAIN_TRACK_GAIN -8.86 dB
    REM REPLAYGAIN_TRACK_PEAK 0.977203
    INDEX 01 00:00:00
FILE "11 Emergency Landings.flac" WAVE
  TRACK 11 AUDIO
    TITLE "Emergency Landings"
    ISRC QMQPV1500011
    FLAGS DCP
    REM REPLAYGAIN_TRACK_GAIN -8.98 dB
    REM REPLAYGAIN_TRACK_PEAK 0.977234
    INDEX 01 00:00:00
Правила, инструкции, FAQ!!!
Торрент  Добавлен [26 мар 2019, 19:18] Скачать торрент Магнет ссылка
Скачать торрент
[ Размер 2.02 КБ / Просмотров 0 ]

Статус
Проверен 
 
Размер  310.16 МБ
Приватный: Нет (DHT включён)
.torrent скачан  0
 


     Отправить личное сообщение
   
Страница 1 из 1
Показать сообщения за:  Поле сортировки  
Начать новую тему Ответить на тему


Сейчас этот форум просматривают: нет зарегистрированных пользователей и гости: 0


Вы не можете начинать темы
Вы не можете отвечать на сообщения
Вы не можете редактировать свои сообщения
Вы не можете удалять свои сообщения
Вы не можете добавлять вложения

Перейти:  
cron