Начать новую тему Ответить на тему
Статистика раздачи
Размер: 341.39 МБ | Добавлен: 26 мар 2019, 20:30 | Скачали: 0
Сидеров: 0  [0 байт/сек]    Личеров: 0  [0 байт/сек]
Пред. тема | След. тема 

Автор
Сообщение

СообщениеДобавлено: 26 мар 2019, 20:30 

Ответить с цитатой 

The Rebel Pebbles -
Girls Talk (Japanese edition)Жанр: Pop Rock
Лейбл: International Record Syndicate,Inc.
Изготовитель: Victor Musical Industries,Inc.
Каталог: VICP-5066
Страна/Сделано: Japan
Год издания: 1991
Тип рипа: Image+.Cue
Аудио кодек: FLAC [*.flac]
Метод сжатия аудио: lossless
Продолжительность: 37:22
Источник (релизёр): Рипы с собственных CD (RoxMan)
Наличие сканов: Да
Треклист:
01. Dream Lover (3:58)
02. How Do You Feel (3:36)
03. Girls Talk (3:27)
04. Anthony's Attic (4:28)
05. Toy Soldier (3:58)
06. No More Cryin' (2:48)
07. Groovy Love (2:03)
08. Without You (3:25)
09. Eskimo And Butterfly (3:08)
10. Elephant's Revenge (3:14)
11. Wild Weekend (3:18)
Код:
Exact Audio Copy V1.0 beta 3 from 29. August 2011
EAC extraction logfile from 25. August 2013, 14:41
The Rebel Pebbles / Girls Talk
Used drive  : ASUS    DRW-20B1ST   Adapter: 2  ID: 0
Read mode               : Secure
Utilize accurate stream : Yes
Defeat audio cache      : Yes
Make use of C2 pointers : No
Read offset correction                      : 6
Overread into Lead-In and Lead-Out          : No
Fill up missing offset samples with silence : Yes
Delete leading and trailing silent blocks   : No
Null samples used in CRC calculations       : Yes
Used interface                              : Native Win32 interface for Win NT & 2000
Used output format              : User Defined Encoder
Selected bitrate                : 1024 kBit/s
Quality                         : High
Add ID3 tag                     : No
Command line compressor         : C:\Program Files\Exact Audio Copy\Flac\flac.exe
Additional command line options : -V -8 -T "Date=%year%" -T "Genre=%genre%" -T "Comment=Rip made RoxMan, Enjoy!" %source%
TOC of the extracted CD
     Track |   Start  |  Length  | Start sector | End sector
    ---------------------------------------------------------
        1  |  0:00.37 |  3:57.60 |        37    |    17871
        2  |  3:58.22 |  3:35.57 |     17872    |    34053
        3  |  7:34.04 |  3:27.00 |     34054    |    49578
        4  | 11:01.04 |  4:27.55 |     49579    |    69658
        5  | 15:28.59 |  3:58.28 |     69659    |    87536
        6  | 19:27.12 |  2:48.15 |     87537    |   100151
        7  | 22:15.27 |  2:02.50 |    100152    |   109351
        8  | 24:18.02 |  3:24.55 |    109352    |   124706
        9  | 27:42.57 |  3:07.42 |    124707    |   138773
       10  | 30:50.24 |  3:14.00 |    138774    |   153323
       11  | 34:04.24 |  3:18.33 |    153324    |   168206
Range status and errors
Selected range
     Filename D:\The Rebel Pebbles - Girls Talk.wav
     Peak level 94.6 %
     Extraction speed 7.8 X
     Range quality 100.0 %
     Test CRC 2C48CC5E
     Copy CRC 2C48CC5E
     Copy OK
No errors occurred
AccurateRip summary
Track  1  not present in database
Track  2  not present in database
Track  3  not present in database
Track  4  not present in database
Track  5  not present in database
Track  6  not present in database
Track  7  not present in database
Track  8  not present in database
Track  9  not present in database
Track 10  not present in database
Track 11  not present in database
None of the tracks are present in the AccurateRip database
End of status report
==== Log checksum 6EEC0F14B4B62F9A9DB8E6B326C266204B4AC5C15F963BAC5FBC05EAEB9D90B4 ====


PS: раздача с 18:00 до 23:30 (время московское).
Поддерживая раздачу, вы даёте возможность скачать её другим !
Правила, инструкции, FAQ!!!
Торрент  Добавлен [26 мар 2019, 20:30] Скачать торрент Магнет ссылка
Скачать торрент
[ Размер 14.72 КБ / Просмотров 2 ]

Статус
Проверен 
 
Размер  341.39 МБ
Приватный: Нет (DHT включён)
.torrent скачан  0
 


     Отправить личное сообщение
   
Страница 1 из 1
Показать сообщения за:  Поле сортировки  
Начать новую тему Ответить на тему


Сейчас этот форум просматривают: нет зарегистрированных пользователей и гости: 0


Вы не можете начинать темы
Вы не можете отвечать на сообщения
Вы не можете редактировать свои сообщения
Вы не можете удалять свои сообщения
Вы не можете добавлять вложения

Перейти:  
cron