Начать новую тему Ответить на тему
Статистика раздачи
Размер: 264.44 МБ | Добавлен: 26 мар 2019, 20:53 | Скачали: 0
Сидеров: 0  [0 байт/сек]    Личеров: 0  [0 байт/сек]
Пред. тема | След. тема 

Автор
Сообщение

СообщениеДобавлено: 26 мар 2019, 20:53 

Ответить с цитатой 

The Outfield / Voices Of Babylon
Жанр: Pop Rock
Страна-производитель диска: Europe
Год издания: 1989
Издатель (лейбл): CBS Records
Номер по каталогу: 463445-2
Страна: UK
Аудиокодек: FLAC (*.flac)
Тип рипа: image+.cue
Битрейт аудио: lossless
Продолжительность: 00:35:13
Источник (релизер): supang
Наличие сканов в содержимом раздачи: да
Треклист:
01. Voices Of Babylon
02. My Paradise
03. Part Of Your Life
04. Shelter Me
05. The Night Ain't Over
06. No Point
07. Taken By Surprise
08. Reach Out
09. Makin' Up
10. Inside Your Skin
Код:
Exact Audio Copy V0.99 prebeta 4 from 23. January 2008
EAC extraction logfile from 6. April 2008, 18:04
The Outfield / Voices Of Babylon
Used drive  : PLEXTOR DVDR   PX-716A   Adapter: 1  ID: 0
Read mode               : Secure
Utilize accurate stream : Yes
Defeat audio cache      : Yes
Make use of C2 pointers : No
Read offset correction                      : 30
Overread into Lead-In and Lead-Out          : Yes
Fill up missing offset samples with silence : Yes
Delete leading and trailing silent blocks   : No
Null samples used in CRC calculations       : Yes
Used interface                              : Installed external ASPI interface
Used output format : Internal WAV Routines
Sample format      : 44.100 Hz; 16 Bit; Stereo
TOC of the extracted CD
     Track |   Start  |  Length  | Start sector | End sector
    ---------------------------------------------------------
        1  |  0:00.00 |  3:32.37 |         0    |    15936
        2  |  3:32.37 |  3:39.50 |     15937    |    32411
        3  |  7:12.12 |  3:58.68 |     32412    |    50329
        4  | 11:11.05 |  3:53.27 |     50330    |    67831
        5  | 15:04.32 |  4:07.70 |     67832    |    86426
        6  | 19:12.27 |  3:03.48 |     86427    |   100199
        7  | 22:16.00 |  3:11.17 |    100200    |   114541
        8  | 25:27.17 |  3:32.33 |    114542    |   130474
        9  | 28:59.50 |  2:48.67 |    130475    |   143141
       10  | 31:48.42 |  3:24.50 |    143142    |   158491
Range status and errors
Selected range
     Filename C:\DAE\The Outfield - Voices Of Babylon\The Outfield - Voices Of Babylon.wav
     Peak level 97.0 %
     Range quality 100.0 %
     Test CRC E4C254D8
     Copy CRC E4C254D8
     Copy OK
No errors occurred
End of status report
Правила, инструкции, FAQ!!!
Торрент  Добавлен [26 мар 2019, 20:53] Скачать торрент Магнет ссылка
Скачать торрент
[ Размер 11.53 КБ / Просмотров 2 ]

Статус
Проверен 
 
Размер  264.44 МБ
Приватный: Нет (DHT включён)
.torrent скачан  0
 


     Отправить личное сообщение
   
Страница 1 из 1
Показать сообщения за:  Поле сортировки  
Начать новую тему Ответить на тему


Сейчас этот форум просматривают: нет зарегистрированных пользователей и гости: 0


Вы не можете начинать темы
Вы не можете отвечать на сообщения
Вы не можете редактировать свои сообщения
Вы не можете удалять свои сообщения
Вы не можете добавлять вложения

Перейти:  
cron