Начать новую тему Ответить на тему
Статистика раздачи
Размер: 282.99 МБ | Добавлен: 26 мар 2019, 20:26 | Скачали: 0
Сидеров: 0  [0 байт/сек]    Личеров: 0  [0 байт/сек]
Пред. тема | След. тема 

Автор
Сообщение

СообщениеДобавлено: 26 мар 2019, 20:26 

Ответить с цитатой 

The Outfield / Bangin' [CBS 450609-2]
Жанр: Pop Rock
Страна-производитель диска: Europe
Год издания: 1987
Издатель (лейбл): CBS
Номер по каталогу: 450609-2
Страна: UK
Аудиокодек: FLAC (*.flac)
Тип рипа: image+.cue
Битрейт аудио: lossless
Продолжительность: 00:42:58
Источник (релизер): supang
Наличие сканов в содержимом раздачи: да
Треклист:
01. Somewhere In America
02. Bangin' On My Heart
03. No Surrender
04. Moving Target
05. Long Way Home
06. Playground
07. Alone With You
08. The Main Attraction
09. Better Than Nothing
10. Since You've Been Gone
Код:
Exact Audio Copy V0.99 prebeta 4 from 23. January 2008
EAC extraction logfile from 6. April 2008, 17:30
The Outfield / Bangin'
Used drive  : PLEXTOR DVDR   PX-716A   Adapter: 1  ID: 0
Read mode               : Secure
Utilize accurate stream : Yes
Defeat audio cache      : Yes
Make use of C2 pointers : No
Read offset correction                      : 30
Overread into Lead-In and Lead-Out          : Yes
Fill up missing offset samples with silence : Yes
Delete leading and trailing silent blocks   : No
Null samples used in CRC calculations       : Yes
Used interface                              : Installed external ASPI interface
Used output format : Internal WAV Routines
Sample format      : 44.100 Hz; 16 Bit; Stereo
TOC of the extracted CD
     Track |   Start  |  Length  | Start sector | End sector
    ---------------------------------------------------------
        1  |  0:00.00 |  4:13.55 |         0    |    19029
        2  |  4:13.55 |  3:58.35 |     19030    |    36914
        3  |  8:12.15 |  4:48.55 |     36915    |    58569
        4  | 13:00.70 |  4:22.05 |     58570    |    78224
        5  | 17:23.00 |  4:23.05 |     78225    |    97954
        6  | 21:46.05 |  5:00.27 |     97955    |   120481
        7  | 26:46.32 |  3:18.40 |    120482    |   135371
        8  | 30:04.72 |  3:57.60 |    135372    |   153206
        9  | 34:02.57 |  4:06.58 |    153207    |   171714
       10  | 38:09.40 |  4:48.57 |    171715    |   193371
Range status and errors
Selected range
     Filename C:\DAE\The Outfield - Bangin'\The Outfield - Bangin'.wav
     Peak level 69.4 %
     Range quality 100.0 %
     Test CRC A70ECC55
     Copy CRC A70ECC55
     Copy OK
No errors occurred
End of status report
Правила, инструкции, FAQ!!!
Торрент  Добавлен [26 мар 2019, 20:26] Скачать торрент Магнет ссылка
Скачать торрент
[ Размер 12.2 КБ / Просмотров 0 ]

Статус
Проверен 
 
Размер  282.99 МБ
Приватный: Нет (DHT включён)
.torrent скачан  0
 


     Отправить личное сообщение
   
Страница 1 из 1
Показать сообщения за:  Поле сортировки  
Начать новую тему Ответить на тему


Сейчас этот форум просматривают: нет зарегистрированных пользователей и гости: 0


Вы не можете начинать темы
Вы не можете отвечать на сообщения
Вы не можете редактировать свои сообщения
Вы не можете удалять свои сообщения
Вы не можете добавлять вложения

Перейти:  
cron