Начать новую тему Ответить на тему
Статистика раздачи
Размер: 361.98 МБ | Добавлен: 26 мар 2019, 18:51 | Скачали: 0
Сидеров: 0  [0 байт/сек]    Личеров: 0  [0 байт/сек]
Пред. тема | След. тема 

Автор
Сообщение

СообщениеДобавлено: 26 мар 2019, 18:51 

Ответить с цитатой 

The Northern Pikes / Snow In June
Жанр: Pop-Rock
Носитель: CD
Страна-производитель диска (релиза): Canada
Год издания: 1990
Издатель (лейбл): Virgin Records Canada
Номер по каталогу: CDV3084
Аудиокодек: FLAC (*.flac)
Тип рипа: tracks+.cue
Битрейт аудио: lossless
Продолжительность: 0:56:43.
Источник (релизер): clustert
Наличие сканов в содержимом раздачи: да
Треклист:
01. Dream Away [0:04:41.15]
02. Love These Hands [0:04:11.72]
03. Kiss Me You Fool [0:04:24.23]
04. She Ain't Pretty [0:02:43.57]
05. Tomorrow Never Comes [0:04:52.50]
06. Shadow of Doubt [0:05:03.53]
07. Shotgun Morning [0:03:55.45]
08. Isn't It Lovely [0:06:18.47]
09. Unimportant [0:02:41.28]
10. Am I In Your Way [0:03:46.30]
11. Girl With A Problem [0:03:59.32]
12. Green Fields [0:04:07.65]
13. Snow In June [0:05:57.00]
Код:
Exact Audio Copy V1.0 beta 3 from 29. August 2011
Отчёт EAC об извлечении, выполненном 6. сентября 2015, 10:21
The Northern Pikes / Snow In June
Дисковод: ASUS    DRW-1814BLT   Adapter: 4  ID: 0
Режим чтения                 : Достоверность
Использование точного потока : Да
Отключение кэша аудио        : Да
Использование указателей C2  : Нет
Коррекция смещения при чтении                     : 6
Способность читать области Lead-in и Lead-out     : Нет
Заполнение пропущенных сэмплов тишиной            : Да
Удаление блоков с тишиной в начале и конце        : Нет
При вычислениях CRC использовались нулевые сэмплы : Да
Интерфейс                                         : Встроенный Win32-интерфейс для Win NT/2000
Обработка зазоров                                 : Добавлено к предыдущему треку
Выходной формат          : Пользовательский кодировщик
Выбранный битрейт        : 128 kBit/s
Качество                 : Высокий
Добавление ID3-тега      : Нет
Утилита сжатия           : C:\Program Files\Exact Audio Copy\Flac\flac.exe
Дополнительные параметры :  -V -8 -T "Genre=%genre%" -T "Artist=%artist%" -T "Title=%title%" -T "Album=%albumtitle%" -T "Date=%year%" -T "Tracknumber=%tracknr%" -T "Comment=EAC1.0b2 FLAC -8" %source%
TOC извлечённого CD
     Трек |   Старт  | Длительность | Начальный сектор | Конечный сектор
    ---------------------------------------------------------------------
       1  |  0:00.00 |    4:41.15   |           0      |      21089
       2  |  4:41.15 |    4:11.72   |       21090      |      39986
       3  |  8:53.12 |    4:24.23   |       39987      |      59809
       4  | 13:17.35 |    2:43.57   |       59810      |      72091
       5  | 16:01.17 |    4:52.50   |       72092      |      94041
       6  | 20:53.67 |    5:03.53   |       94042      |     116819
       7  | 25:57.45 |    3:55.45   |      116820      |     134489
       8  | 29:53.15 |    6:18.47   |      134490      |     162886
       9  | 36:11.62 |    2:41.28   |      162887      |     174989
      10  | 38:53.15 |    3:46.30   |      174990      |     191969
      11  | 42:39.45 |    3:59.32   |      191970      |     209926
      12  | 46:39.02 |    4:07.65   |      209927      |     228516
      13  | 50:46.67 |    5:57.00   |      228517      |     255291
Трек  1
     Имя файла R:\Раздача 53\The Northrn Pikes - 1990 - Snow In June\01 Dream Away.wav
     Длина предзазора  0:00:02.00
     Пиковый уровень 95.0 %
     Скорость извлечения 3.9 X
     Качество трека 99.9 %
     CRC теста F8A2486A
     CRC копии F8A2486A
     Точное извлечение (достоверность 2)  [60916C1C]  (AR v2)
     Копирование... OK
Трек  2
     Имя файла R:\Раздача 53\The Northrn Pikes - 1990 - Snow In June\02 Love These Hands.wav
     Длина предзазора  0:00:00.10
     Пиковый уровень 97.2 %
     Скорость извлечения 4.3 X
     Качество трека 99.9 %
     CRC теста C760B451
     CRC копии C760B451
     Точное извлечение (достоверность 2)  [AF70D432]  (AR v2)
     Копирование... OK
Трек  3
     Имя файла R:\Раздача 53\The Northrn Pikes - 1990 - Snow In June\03 Kiss Me You Fool.wav
     Длина предзазора  0:00:00.07
     Пиковый уровень 97.2 %
     Скорость извлечения 6.3 X
     Качество трека 100.0 %
     CRC теста 19630D21
     CRC копии 19630D21
     Точное извлечение (достоверность 2)  [1D2646EA]  (AR v2)
     Копирование... OK
Трек  4
     Имя файла R:\Раздача 53\The Northrn Pikes - 1990 - Snow In June\04 She Ain't Pretty.wav
     Пиковый уровень 97.2 %
     Скорость извлечения 6.2 X
     Качество трека 100.0 %
     CRC теста 3588479A
     CRC копии 3588479A
     Точное извлечение (достоверность 2)  [0ABE5391]  (AR v2)
     Копирование... OK
Трек  5
     Имя файла R:\Раздача 53\The Northrn Pikes - 1990 - Snow In June\05 Tomorrow Never Comes.wav
     Пиковый уровень 97.2 %
     Скорость извлечения 7.1 X
     Качество трека 100.0 %
     CRC теста DE258CCC
     CRC копии DE258CCC
     Точное извлечение (достоверность 2)  [4B54961F]  (AR v2)
     Копирование... OK
Трек  6
     Имя файла R:\Раздача 53\The Northrn Pikes - 1990 - Snow In June\06 Shadow of Doubt.wav
     Пиковый уровень 97.2 %
     Скорость извлечения 7.7 X
     Качество трека 100.0 %
     CRC теста 21C681C1
     CRC копии 21C681C1
     Точное извлечение (достоверность 2)  [AFC0623B]  (AR v2)
     Копирование... OK
Трек  7
     Имя файла R:\Раздача 53\The Northrn Pikes - 1990 - Snow In June\07 Shotgun Morning.wav
     Длина предзазора  0:00:04.05
     Пиковый уровень 97.2 %
     Скорость извлечения 7.8 X
     Качество трека 100.0 %
     CRC теста DE0791B7
     CRC копии DE0791B7
     Точное извлечение (достоверность 2)  [7488EDBD]  (AR v2)
     Копирование... OK
Трек  8
     Имя файла R:\Раздача 53\The Northrn Pikes - 1990 - Snow In June\08 Isn't It Lovely.wav
     Длина предзазора  0:00:01.68
     Пиковый уровень 97.2 %
     Скорость извлечения 8.7 X
     Качество трека 100.0 %
     CRC теста 1BD76496
     CRC копии 1BD76496
     Точное извлечение (достоверность 2)  [1508C700]  (AR v2)
     Копирование... OK
Трек  9
     Имя файла R:\Раздача 53\The Northrn Pikes - 1990 - Snow In June\09 Unimportant.wav
     Длина предзазора  0:00:01.67
     Пиковый уровень 51.2 %
     Скорость извлечения 7.9 X
     Качество трека 100.0 %
     CRC теста 5B1F6552
     CRC копии 5B1F6552
     Точное извлечение (достоверность 2)  [444A0B5F]  (AR v2)
     Копирование... OK
Трек 10
     Имя файла R:\Раздача 53\The Northrn Pikes - 1990 - Snow In June\10 Am I In Your Way.wav
     Длина предзазора  0:00:00.18
     Пиковый уровень 97.2 %
     Скорость извлечения 6.4 X
     Качество трека 99.9 %
     CRC теста A94BA615
     CRC копии A94BA615
     Точное извлечение (достоверность 2)  [5E855696]  (AR v2)
     Копирование... OK
Трек 11
     Имя файла R:\Раздача 53\The Northrn Pikes - 1990 - Snow In June\11 Girl With A Problem.wav
     Пиковый уровень 97.2 %
     Скорость извлечения 9.0 X
     Качество трека 100.0 %
     CRC теста E2D571BD
     CRC копии E2D571BD
     Точное извлечение (достоверность 2)  [D4749064]  (AR v2)
     Копирование... OK
Трек 12
     Имя файла R:\Раздача 53\The Northrn Pikes - 1990 - Snow In June\12 Green Fields.wav
     Пиковый уровень 91.0 %
     Скорость извлечения 9.3 X
     Качество трека 100.0 %
     CRC теста 0BAC1059
     CRC копии 0BAC1059
     Точное извлечение (достоверность 2)  [68681860]  (AR v2)
     Копирование... OK
Трек 13
     Имя файла R:\Раздача 53\The Northrn Pikes - 1990 - Snow In June\13 Snow In June.wav
     Пиковый уровень 97.2 %
     Скорость извлечения 10.1 X
     Качество трека 100.0 %
     CRC теста FA34230E
     CRC копии FA34230E
     Точное извлечение (достоверность 2)  [4B33DD4B]  (AR v2)
     Копирование... OK
Все треки извлечены точно
Ошибок не произошло
Конец отчёта
==== Контрольная сумма отчёта 41468A9F595D011B21CEC76D1B9CDAC4BF95A8F75BE3A60481E479D148B6001E ====
Код:
REM GENRE Rock
REM DATE 1990
REM DISCID C00D4B0D
REM COMMENT "ExactAudioCopy v1.0b3"
PERFORMER "The Northern Pikes"
TITLE "Snow In June"
FILE "01 Dream Away.wav" WAVE
  TRACK 01 AUDIO
    TITLE "Dream Away"
    PERFORMER "The Northern Pikes"
    INDEX 01 00:00:00
  TRACK 02 AUDIO
    TITLE "Love These Hands"
    PERFORMER "The Northern Pikes"
    INDEX 00 04:41:05
FILE "02 Love These Hands.wav" WAVE
    INDEX 01 00:00:00
  TRACK 03 AUDIO
    TITLE "Kiss Me You Fool"
    PERFORMER "The Northern Pikes"
    INDEX 00 04:11:65
FILE "03 Kiss Me You Fool.wav" WAVE
    INDEX 01 00:00:00
FILE "04 She Ain't Pretty.wav" WAVE
  TRACK 04 AUDIO
    TITLE "She Ain't Pretty"
    PERFORMER "The Northern Pikes"
    INDEX 01 00:00:00
FILE "05 Tomorrow Never Comes.wav" WAVE
  TRACK 05 AUDIO
    TITLE "Tomorrow Never Comes"
    PERFORMER "The Northern Pikes"
    INDEX 01 00:00:00
FILE "06 Shadow of Doubt.wav" WAVE
  TRACK 06 AUDIO
    TITLE "Shadow of Doubt"
    PERFORMER "The Northern Pikes"
    INDEX 01 00:00:00
  TRACK 07 AUDIO
    TITLE "Shotgun Morning"
    PERFORMER "The Northern Pikes"
    INDEX 00 04:59:48
FILE "07 Shotgun Morning.wav" WAVE
    INDEX 01 00:00:00
  TRACK 08 AUDIO
    TITLE "Isn't It Lovely"
    PERFORMER "The Northern Pikes"
    INDEX 00 03:53:52
FILE "08 Isn't It Lovely.wav" WAVE
    INDEX 01 00:00:00
  TRACK 09 AUDIO
    TITLE "Unimportant"
    PERFORMER "The Northern Pikes"
    INDEX 00 06:16:55
FILE "09 Unimportant.wav" WAVE
    INDEX 01 00:00:00
  TRACK 10 AUDIO
    TITLE "Am I In Your Way"
    PERFORMER "The Northern Pikes"
    INDEX 00 02:41:10
FILE "10 Am I In Your Way.wav" WAVE
    INDEX 01 00:00:00
FILE "11 Girl With A Problem.wav" WAVE
  TRACK 11 AUDIO
    TITLE "Girl With A Problem"
    PERFORMER "The Northern Pikes"
    INDEX 01 00:00:00
FILE "12 Green Fields.wav" WAVE
  TRACK 12 AUDIO
    TITLE "Green Fields"
    PERFORMER "The Northern Pikes"
    INDEX 01 00:00:00
FILE "13 Snow In June.wav" WAVE
  TRACK 13 AUDIO
    TITLE "Snow In June"
    PERFORMER "The Northern Pikes"
    INDEX 01 00:00:00
Правила, инструкции, FAQ!!!
Торрент  Добавлен [26 мар 2019, 18:51] Скачать торрент Магнет ссылка
Скачать торрент
[ Размер 16.2 КБ / Просмотров 5 ]

Статус
Проверен 
 
Размер  361.98 МБ
Приватный: Нет (DHT включён)
.torrent скачан  0
 


     Отправить личное сообщение
   
Страница 1 из 1
Показать сообщения за:  Поле сортировки  
Начать новую тему Ответить на тему


Сейчас этот форум просматривают: нет зарегистрированных пользователей и гости: 0


Вы не можете начинать темы
Вы не можете отвечать на сообщения
Вы не можете редактировать свои сообщения
Вы не можете удалять свои сообщения
Вы не можете добавлять вложения

Перейти:  
cron