Начать новую тему Ответить на тему
Статистика раздачи
Размер: 612.22 МБ | Добавлен: 26 мар 2019, 19:28 | Скачали: 0
Сидеров: 0  [0 байт/сек]    Личеров: 0  [0 байт/сек]
Пред. тема | След. тема 

Автор
Сообщение

СообщениеДобавлено: 26 мар 2019, 19:28 

Ответить с цитатой 

The Feeling -The Join With Us - 2008 {Deluxe Edition}
Страна:
Жанр: Pop\Rock
Год выпуска диска: 2008
Производитель диска: Island Records
Аудио кодек: FLAC
Тип рипа: tracks+.cue
Битрейт аудио: lossless
Продолжительность: 01:25:23
Трэклист:
Диск 1
01. I Thought It Was Over (04:00)
02. Without You (04:49)
03. Join With Us (04:40)
04. Spare Me (4:28)
05. Turn It Up (03:52)
06. I Did It for Everyone (04:25)
07. Won't Go Away (03:48)
08. Loneliness (03:25)
09. Conor (03:41)
10. This Time (03:20)
11. Don't Make Me Sad (05:00)
12. The Greatest Show on Earth / We Can Dance (08:41)
Диск 2
01. Sewn (Dan's original version) (04:51)
02. Video Killed the Radio Star (live) (03:45)
03. Fill My Little World (acoustic version) (03:06)
04. All You Need to Do (04:06)
05. Never Be Lonely (acoustic) (03:36)
06. Don't Give Up (04:04)
07. When I Return (04:08)
08. Love It When You Call (Chorale version) (03:38)
Доп. информация:
Альбом скачан с What.cd
Код:
EAC extraction logfile from 29. February 2008, 13:46 for CD
The Feeling / Join With Us (Deluxe Edition) CD1
Used drive  : PLEXTOR CD-R   PX-W5224A   Adapter: 1  ID: 0
Read mode   : Secure with NO C2, accurate stream, disable cache
Read offset correction : 30
Overread into Lead-In and Lead-Out : No
Used output format : C:\Program Files\FLAC\flac.exe   (User Defined Encoder)
                     128 kBit/s
                     Additional command line options : -V -8 -T "artist=%a" -T "title=%t" -T "album=%g" -T "date=%y" -T "tracknumber=%n" -T "genre=%m" %s
Other options      :
    Fill up missing offset samples with silence : Yes
    Delete leading and trailing silent blocks : No
    Native Win32 interface for Win NT & 2000
Track  1
     Filename E:\FLAC\Feeling, The - Join With Us (Deluxe Edition)\Feeling, The - Join With Us (Deluxe Edition) CD1\01 - I Thought It Was Over.wav
     Pre-gap length  0:00:02.00
     Peak level 97.7 %
     Track quality 100.0 %
     Test CRC CFA32EC1
     Copy CRC CFA32EC1
     Copy OK
Track  2
     Filename E:\FLAC\Feeling, The - Join With Us (Deluxe Edition)\Feeling, The - Join With Us (Deluxe Edition) CD1\02 - Without You.wav
     Peak level 97.7 %
     Track quality 99.9 %
     Test CRC C2A44A84
     Copy CRC C2A44A84
     Copy OK
Track  3
     Filename E:\FLAC\Feeling, The - Join With Us (Deluxe Edition)\Feeling, The - Join With Us (Deluxe Edition) CD1\03 - Join With Us.wav
     Peak level 97.8 %
     Track quality 100.0 %
     Test CRC 481105F8
     Copy CRC 481105F8
     Copy OK
Track  4
     Filename E:\FLAC\Feeling, The - Join With Us (Deluxe Edition)\Feeling, The - Join With Us (Deluxe Edition) CD1\04 - Spare Me.wav
     Peak level 97.7 %
     Track quality 100.0 %
     Test CRC 6686BADB
     Copy CRC 6686BADB
     Copy OK
Track  5
     Filename E:\FLAC\Feeling, The - Join With Us (Deluxe Edition)\Feeling, The - Join With Us (Deluxe Edition) CD1\05 - Turn It Up.wav
     Peak level 100.0 %
     Track quality 100.0 %
     Test CRC 1C5A50FE
     Copy CRC 1C5A50FE
     Copy OK
Track  6
     Filename E:\FLAC\Feeling, The - Join With Us (Deluxe Edition)\Feeling, The - Join With Us (Deluxe Edition) CD1\06 - I Did It For Everyone.wav
     Peak level 97.7 %
     Track quality 100.0 %
     Test CRC 3A967467
     Copy CRC 3A967467
     Copy OK
Track  7
     Filename E:\FLAC\Feeling, The - Join With Us (Deluxe Edition)\Feeling, The - Join With Us (Deluxe Edition) CD1\07 - Won't Go Away.wav
     Peak level 97.7 %
     Track quality 99.9 %
     Test CRC 197EE8F0
     Copy CRC 197EE8F0
     Copy OK
Track  8
     Filename E:\FLAC\Feeling, The - Join With Us (Deluxe Edition)\Feeling, The - Join With Us (Deluxe Edition) CD1\08 - Loneliness.wav
     Peak level 97.7 %
     Track quality 100.0 %
     Test CRC 836CFD1D
     Copy CRC 836CFD1D
     Copy OK
Track  9
     Filename E:\FLAC\Feeling, The - Join With Us (Deluxe Edition)\Feeling, The - Join With Us (Deluxe Edition) CD1\09 - Conor.wav
     Peak level 97.7 %
     Track quality 100.0 %
     Test CRC 643AC710
     Copy CRC 643AC710
     Copy OK
Track 10
     Filename E:\FLAC\Feeling, The - Join With Us (Deluxe Edition)\Feeling, The - Join With Us (Deluxe Edition) CD1\10 - This Time.wav
     Peak level 97.7 %
     Track quality 100.0 %
     Test CRC F839F420
     Copy CRC F839F420
     Copy OK
Track 11
     Filename E:\FLAC\Feeling, The - Join With Us (Deluxe Edition)\Feeling, The - Join With Us (Deluxe Edition) CD1\11 - Don't Make Me Sad.wav
     Peak level 97.7 %
     Track quality 100.0 %
     Test CRC BB6AA0BF
     Copy CRC BB6AA0BF
     Copy OK
Track 12
     Filename E:\FLAC\Feeling, The - Join With Us (Deluxe Edition)\Feeling, The - Join With Us (Deluxe Edition) CD1\12 - The Greatest Show On Earth + We Can Dance (Hidden Track).wav
     Peak level 97.7 %
     Track quality 100.0 %
     Test CRC CAA38621
     Copy CRC CAA38621
     Copy OK
No errors occured
End of status report
Код:
REM GENRE Pop
REM DATE 2008
REM DISCID 810CB60C
REM COMMENT "ExactAudioCopy v0.95b4"
CATALOG 0602517619043
PERFORMER "The Feeling"
TITLE "Join With Us (Deluxe Edition) CD1"
FILE "01 - I Thought It Was Over.wav" WAVE
  TRACK 01 AUDIO
    TITLE "I Thought It Was Over"
    PERFORMER "The Feeling"
    ISRC GBUM70711173
    INDEX 01 00:00:00
FILE "02 - Without You.wav" WAVE
  TRACK 02 AUDIO
    TITLE "Without You"
    PERFORMER "The Feeling"
    ISRC GBUM70711174
    INDEX 01 00:00:00
FILE "03 - Join With Us.wav" WAVE
  TRACK 03 AUDIO
    TITLE "Join With Us"
    PERFORMER "The Feeling"
    ISRC GBUM70606588
    INDEX 01 00:00:00
FILE "04 - Spare Me.wav" WAVE
  TRACK 04 AUDIO
    TITLE "Spare Me"
    PERFORMER "The Feeling"
    ISRC GBUM70711175
    INDEX 01 00:00:00
FILE "05 - Turn It Up.wav" WAVE
  TRACK 05 AUDIO
    TITLE "Turn It Up"
    PERFORMER "The Feeling"
    ISRC GBUM70711176
    INDEX 01 00:00:00
FILE "06 - I Did It For Everyone.wav" WAVE
  TRACK 06 AUDIO
    TITLE "I Did It For Everyone"
    PERFORMER "The Feeling"
    ISRC GBUM70713206
    INDEX 01 00:00:00
FILE "07 - Won't Go Away.wav" WAVE
  TRACK 07 AUDIO
    TITLE "Won't Go Away"
    PERFORMER "The Feeling"
    ISRC GBUM70713207
    INDEX 01 00:00:00
FILE "08 - Loneliness.wav" WAVE
  TRACK 08 AUDIO
    TITLE "Loneliness"
    PERFORMER "The Feeling"
    ISRC GBUM70713208
    INDEX 01 00:00:00
FILE "09 - Conor.wav" WAVE
  TRACK 09 AUDIO
    TITLE "Conor"
    PERFORMER "The Feeling"
    ISRC GBUM70713209
    INDEX 01 00:00:00
FILE "10 - This Time.wav" WAVE
  TRACK 10 AUDIO
    TITLE "This Time"
    PERFORMER "The Feeling"
    ISRC GBUM70711177
    INDEX 01 00:00:00
FILE "11 - Don't Make Me Sad.wav" WAVE
  TRACK 11 AUDIO
    TITLE "Don't Make Me Sad"
    PERFORMER "The Feeling"
    ISRC GBUM70713210
    INDEX 01 00:00:00
FILE "12 - The Greatest Show On Earth + We Can Dance (Hidden Track).wav" WAVE
  TRACK 12 AUDIO
    TITLE "The Greatest Show On Earth + We Can Dance (Hidden Track)"
    PERFORMER "The Feeling"
    ISRC GBUM70800401
    INDEX 01 00:00:00
Код:
EAC extraction logfile from 29. February 2008, 14:06 for CD
The Feeling / Join With Us (Deluxe Edition) CD2
Used drive  : PLEXTOR CD-R   PX-W5224A   Adapter: 1  ID: 0
Read mode   : Secure with NO C2, accurate stream, disable cache
Read offset correction : 30
Overread into Lead-In and Lead-Out : No
Used output format : C:\Program Files\FLAC\flac.exe   (User Defined Encoder)
                     128 kBit/s
                     Additional command line options : -V -8 -T "artist=%a" -T "title=%t" -T "album=%g" -T "date=%y" -T "tracknumber=%n" -T "genre=%m" %s
Other options      :
    Fill up missing offset samples with silence : Yes
    Delete leading and trailing silent blocks : No
    Native Win32 interface for Win NT & 2000
Track  1
     Filename E:\FLAC\Feeling, The - Join With Us (Deluxe Edition)\Feeling, The - Join With Us (Deluxe Edition) CD2\01 - Sewn (Dan's Original Version).wav
     Pre-gap length  0:00:02.00
     Peak level 99.7 %
     Track quality 100.0 %
     Test CRC BCF5EDCF
     Copy CRC BCF5EDCF
     Copy OK
Track  2
     Filename E:\FLAC\Feeling, The - Join With Us (Deluxe Edition)\Feeling, The - Join With Us (Deluxe Edition) CD2\02 - Video Killed The Radio Star (Live From The Hospital).wav
     Pre-gap length  0:00:01.77
     Peak level 99.7 %
     Track quality 100.0 %
     Test CRC 59B65BA3
     Copy CRC 59B65BA3
     Copy OK
Track  3
     Filename E:\FLAC\Feeling, The - Join With Us (Deluxe Edition)\Feeling, The - Join With Us (Deluxe Edition) CD2\03 - Fill My Little World (Acoustic Version).wav
     Pre-gap length  0:00:00.94
     Peak level 99.7 %
     Track quality 100.0 %
     Test CRC A54D646B
     Copy CRC A54D646B
     Copy OK
Track  4
     Filename E:\FLAC\Feeling, The - Join With Us (Deluxe Edition)\Feeling, The - Join With Us (Deluxe Edition) CD2\04 - All You Need To Do.wav
     Pre-gap length  0:00:01.94
     Peak level 99.7 %
     Track quality 100.0 %
     Test CRC 64584DEE
     Copy CRC 64584DEE
     Copy OK
Track  5
     Filename E:\FLAC\Feeling, The - Join With Us (Deluxe Edition)\Feeling, The - Join With Us (Deluxe Edition) CD2\05 - Never Be Lonely (Acoustic).wav
     Pre-gap length  0:00:01.84
     Peak level 99.7 %
     Track quality 100.0 %
     Test CRC 2AA3D6F1
     Copy CRC 2AA3D6F1
     Copy OK
Track  6
     Filename E:\FLAC\Feeling, The - Join With Us (Deluxe Edition)\Feeling, The - Join With Us (Deluxe Edition) CD2\06 - Don't Give Up.wav
     Pre-gap length  0:00:02.54
     Peak level 99.7 %
     Track quality 100.0 %
     Test CRC 118211E2
     Copy CRC 118211E2
     Copy OK
Track  7
     Filename E:\FLAC\Feeling, The - Join With Us (Deluxe Edition)\Feeling, The - Join With Us (Deluxe Edition) CD2\07 - When I Return.wav
     Pre-gap length  0:00:00.81
     Peak level 99.7 %
     Track quality 100.0 %
     Test CRC 6111A182
     Copy CRC 6111A182
     Copy OK
Track  8
     Filename E:\FLAC\Feeling, The - Join With Us (Deluxe Edition)\Feeling, The - Join With Us (Deluxe Edition) CD2\08 - Love It When You Call (Chorale Version Feat. The Tufts Beelzebubs).wav
     Pre-gap length  0:00:02.48
     Peak level 99.7 %
     Track quality 100.0 %
     Test CRC 5FFC0C9D
     Copy CRC 5FFC0C9D
     Copy OK
No errors occured
End of status report
Код:
REM GENRE Pop
REM DATE 2008
REM DISCID 62075308
REM COMMENT "ExactAudioCopy v0.95b4"
CATALOG 0602517619050
PERFORMER "The Feeling"
TITLE "Join With Us (Deluxe Edition) CD2"
FILE "01 - Sewn (Dan's Original Version).wav" WAVE
  TRACK 01 AUDIO
    TITLE "Sewn (Dan's Original Version)"
    PERFORMER "The Feeling"
    ISRC GBUM70700072
    INDEX 01 00:00:00
  TRACK 02 AUDIO
    TITLE "Video Killed The Radio Star (Live From The Hospital)"
    PERFORMER "The Feeling"
    ISRC GBUM70700069
    INDEX 00 04:49:14
FILE "02 - Video Killed The Radio Star (Live From The Hospital).wav" WAVE
    INDEX 01 00:00:00
  TRACK 03 AUDIO
    TITLE "Fill My Little World (Acoustic Version)"
    PERFORMER "The Feeling"
    ISRC GBUM70601348
    INDEX 00 03:44:18
FILE "03 - Fill My Little World (Acoustic Version).wav" WAVE
    INDEX 01 00:00:00
  TRACK 04 AUDIO
    TITLE "All You Need To Do"
    PERFORMER "The Feeling"
    ISRC GBAAN0500378
    INDEX 00 03:04:21
FILE "04 - All You Need To Do.wav" WAVE
    INDEX 01 00:00:00
  TRACK 05 AUDIO
    TITLE "Never Be Lonely (Acoustic)"
    PERFORMER "The Feeling"
    ISRC GBUM70603071
    INDEX 00 04:04:73
FILE "05 - Never Be Lonely (Acoustic).wav" WAVE
    INDEX 01 00:00:00
  TRACK 06 AUDIO
    TITLE "Don't Give Up "
    PERFORMER "The Feeling"
    ISRC GBUM70605076
    INDEX 00 03:33:34
FILE "06 - Don't Give Up.wav" WAVE
    INDEX 01 00:00:00
  TRACK 07 AUDIO
    TITLE "When I Return "
    PERFORMER "The Feeling"
    ISRC GBUM70600157
    INDEX 00 04:03:13
FILE "07 - When I Return.wav" WAVE
    INDEX 01 00:00:00
  TRACK 08 AUDIO
    TITLE "Love It When You Call (Chorale Version Feat. The Tufts Beelzebubs)"
    PERFORMER "The Feeling"
    ISRC GBUM70713214
    INDEX 00 04:05:39
FILE "08 - Love It When You Call (Chorale Version Feat. The Tufts Beelzebubs).wav" WAVE
    INDEX 01 00:00:00
Не забывайте голосовать за раздачу!!!
Правила, инструкции, FAQ!!!
Торрент  Добавлен [26 мар 2019, 19:28] Скачать торрент Магнет ссылка
Скачать торрент
[ Размер 15.46 КБ / Просмотров 2 ]

Статус
Проверен 
 
Размер  612.22 МБ
Приватный: Нет (DHT включён)
.torrent скачан  0
 


     Отправить личное сообщение
   
Страница 1 из 1
Показать сообщения за:  Поле сортировки  
Начать новую тему Ответить на тему


Сейчас этот форум просматривают: нет зарегистрированных пользователей и гости: 0


Вы не можете начинать темы
Вы не можете отвечать на сообщения
Вы не можете редактировать свои сообщения
Вы не можете удалять свои сообщения
Вы не можете добавлять вложения

Перейти:  
cron