Начать новую тему Ответить на тему
Статистика раздачи
Размер: 566.59 МБ | Добавлен: 26 мар 2019, 20:27 | Скачали: 1
Сидеров: 1  [0 байт/сек]    Личеров: 0  [0 байт/сек]
Пред. тема | След. тема 

Автор
Сообщение

СообщениеДобавлено: 26 мар 2019, 20:27 

Ответить с цитатой 

The Corrs - Golden Collection 2000
Жанр: Pop-Rock
Год выпуска диска: 2000
Производитель диска: Россия
Аудио кодек: APE
Тип рипа: image+.cue
Битрейт аудио: lossless
Продолжительность: 78:59
Трэклист:
1. Breathless
2. Runaway
3. Dreams
4. Heaven Knows
5. Say
6. Closer
7. Queen Of Hollywood
8. Love To Love You
9. Only When I Sleep
10. Hopelessly Addicted
11. So Young
12. The Right Time
13. Forgiven Not Forgotten
14. Leve Me Alone
15. What Can I Do
16. No Good For Me
17. Little Wing
18. I Never Loved You Anyway
19. Give It All Up
Код:
Exact Audio Copy V0.99 prebeta 4 from 23. January 2008
Отчёт EAC об извлечении, выполненном 26. мая 2010, 19:10
The Corrs / Golden Collection 2000
Дисковод: LITE-ON DVDRW LH-20A1H   Adapter: 3  ID: 1
Режим чтения                 : Достоверность
Использование точного потока : Да
Отключение кэша аудио        : Да
Использование указателей C2  : Нет
Коррекция смещения при чтении                     : 6
Способность читать области Lead-in и Lead-out     : Нет
Заполнение пропущенных сэмплов тишиной            : Да
Удаление блоков с тишиной в начале и конце        : Нет
При вычислениях CRC использовались нулевые сэмплы : Да
Интерфейс                                         : Установленный внешний ASPI-интерфейс
Выходной формат : Внутренние WAV-операции
Формат сэмплов  : 44.100 Гц; 16 бит; стерео
TOC извлечённого CD
     Трек |   Старт  | Длительность | Начальный сектор | Конечный сектор
    ---------------------------------------------------------------------
       1  |  0:00.00 |    3:26.37   |           0      |      15486
       2  |  3:26.37 |    4:20.00   |       15487      |      34986
       3  |  7:46.37 |    3:59.74   |       34987      |      52985
       4  | 11:46.36 |    4:20.22   |       52986      |      72507
       5  | 16:06.58 |    4:33.36   |       72508      |      93018
       6  | 20:40.19 |    4:03.00   |       93019      |     111243
       7  | 24:43.19 |    5:00.00   |      111244      |     133743
       8  | 29:43.19 |    4:20.38   |      133744      |     153281
       9  | 34:03.57 |    4:04.33   |      153282      |     171614
      10  | 38:08.15 |    4:03.00   |      171615      |     189839
      11  | 42:11.15 |    3:49.02   |      189840      |     207016
      12  | 46:00.17 |    4:05.37   |      207017      |     225428
      13  | 50:05.54 |    4:15.37   |      225429      |     244590
      14  | 54:21.16 |    3:36.37   |      244591      |     260827
      15  | 57:57.53 |    4:13.43   |      260828      |     279845
      16  | 62:11.21 |    3:57.00   |      279846      |     297620
      17  | 66:08.21 |    5:04.63   |      297621      |     320483
      18  | 71:13.09 |    4:23.49   |      320484      |     340257
      19  | 75:36.58 |    3:22.73   |      340258      |     355480
Характеристики диапазона извлечения и сообщения об ошибках
Выбранный диапазон
     Имя файла D:\The Corrs - Golden Collection 2000.wav
     Пиковый уровень 100.0 %
     Качество диапазона 100.0 %
     CRC копии A0013CDA
     Копирование... OK
Ошибок не произошло
AccurateRip: сводка
Трек  1  нет в базе данных
Трек  2  нет в базе данных
Трек  3  нет в базе данных
Трек  4  нет в базе данных
Трек  5  нет в базе данных
Трек  6  нет в базе данных
Трек  7  нет в базе данных
Трек  8  нет в базе данных
Трек  9  нет в базе данных
Трек 10  нет в базе данных
Трек 11  нет в базе данных
Трек 12  нет в базе данных
Трек 13  нет в базе данных
Трек 14  нет в базе данных
Трек 15  нет в базе данных
Трек 16  нет в базе данных
Трек 17  нет в базе данных
Трек 18  нет в базе данных
Трек 19  нет в базе данных
Ни одного трека нет в базе AccurateRip
Конец отчёта
Код:
REM GENRE Pop
REM DATE 2000
REM DISCID 23128313
REM COMMENT "ExactAudioCopy v0.99pb4"
PERFORMER "The Corrs"
TITLE "Golden Collection 2000"
FILE "The Corrs - Golden Collection 2000.ape" WAVE
  TRACK 01 AUDIO
    TITLE "Breathless"
    PERFORMER "The Corrs"
    FLAGS DCP
    INDEX 01 00:00:00
  TRACK 02 AUDIO
    TITLE "Runaway"
    PERFORMER "The Corrs"
    FLAGS DCP
    INDEX 01 03:26:37
  TRACK 03 AUDIO
    TITLE "Dreams"
    PERFORMER "The Corrs"
    FLAGS DCP
    INDEX 01 07:46:37
  TRACK 04 AUDIO
    TITLE "Heaven Knows"
    PERFORMER "The Corrs"
    FLAGS DCP
    INDEX 01 11:46:36
  TRACK 05 AUDIO
    TITLE "Say"
    PERFORMER "The Corrs"
    FLAGS DCP
    INDEX 01 16:06:58
  TRACK 06 AUDIO
    TITLE "Closer"
    PERFORMER "The Corrs"
    FLAGS DCP
    INDEX 01 20:40:19
  TRACK 07 AUDIO
    TITLE "Queen Of Hollywood"
    PERFORMER "The Corrs"
    FLAGS DCP
    INDEX 01 24:43:19
  TRACK 08 AUDIO
    TITLE "Love To Love You"
    PERFORMER "The Corrs"
    FLAGS DCP
    INDEX 01 29:43:19
  TRACK 09 AUDIO
    TITLE "Only When I Sleep"
    PERFORMER "The Corrs"
    FLAGS DCP
    INDEX 01 34:03:57
  TRACK 10 AUDIO
    TITLE "Hopelessly Addicted"
    PERFORMER "The Corrs"
    FLAGS DCP
    INDEX 01 38:08:15
  TRACK 11 AUDIO
    TITLE "So Young"
    PERFORMER "The Corrs"
    FLAGS DCP
    INDEX 01 42:11:15
  TRACK 12 AUDIO
    TITLE "The Right Time"
    PERFORMER "The Corrs"
    FLAGS DCP
    INDEX 01 46:00:17
  TRACK 13 AUDIO
    TITLE "Forgiven Not Forgotten"
    PERFORMER "The Corrs"
    FLAGS DCP
    INDEX 01 50:05:54
  TRACK 14 AUDIO
    TITLE "Leve Me Alone"
    PERFORMER "The Corrs"
    FLAGS DCP
    INDEX 01 54:21:16
  TRACK 15 AUDIO
    TITLE "What Can I Do"
    PERFORMER "The Corrs"
    FLAGS DCP
    INDEX 01 57:57:53
  TRACK 16 AUDIO
    TITLE "No Good For Me"
    PERFORMER "The Corrs"
    FLAGS DCP
    INDEX 01 62:11:21
  TRACK 17 AUDIO
    TITLE "Little Wing"
    PERFORMER "The Corrs"
    FLAGS DCP
    INDEX 01 66:08:21
  TRACK 18 AUDIO
    TITLE "I Never Loved You Anyway"
    PERFORMER "The Corrs"
    FLAGS DCP
    INDEX 01 71:13:09
  TRACK 19 AUDIO
    TITLE "Give It All Up"
    PERFORMER "The Corrs"
    FLAGS DCP
    INDEX 01 75:36:58
Доп. информация: Сканы 600 dpi в комплекте. Собственный рип.
Правила, инструкции, FAQ!!!
Торрент  Добавлен [26 мар 2019, 20:27] Скачать торрент Магнет ссылка
Скачать торрент
[ Размер 11.93 КБ / Просмотров 6 ]

Статус
Проверен 
 
Размер  566.59 МБ
Приватный: Нет (DHT включён)
.torrent скачан  1
 


     Отправить личное сообщение
   
Страница 1 из 1
Показать сообщения за:  Поле сортировки  
Начать новую тему Ответить на тему


Сейчас этот форум просматривают: нет зарегистрированных пользователей и гости: 0


Вы не можете начинать темы
Вы не можете отвечать на сообщения
Вы не можете редактировать свои сообщения
Вы не можете удалять свои сообщения
Вы не можете добавлять вложения

Перейти:  
cron