Начать новую тему Ответить на тему
Статистика раздачи
Размер: 282.51 МБ | Добавлен: 26 мар 2019, 20:27 | Скачали: 0
Сидеров: 4  [0 байт/сек]    Личеров: 1  [0 байт/сек]
Пред. тема | След. тема 

Автор
Сообщение

СообщениеДобавлено: 26 мар 2019, 20:27 

Ответить с цитатой 

The Cardigans / Life
Жанр: Pop-Rock
Страна-производитель диска: Japan
Год издания диска: 1995
Издатель (лейбл): Trampolene
Номер по каталогу: TRACD1502/527 284-2
Страна: Sweden
Аудио кодек: FLAC (*.flac)
Тип рипа: tracks+.cue
Битрейт аудио: lossless
Продолжительность: 45:22
Источник (релизер): Personal
Наличие сканов в содержимом раздачи: нет
Треклист:
"Carnival" – 3:37
"Gordon's Gardenparty" – 3:22
"Daddy's Car" – 3:35
"Pikebubbles" – 3:05
"Tomorrow" – 3:05
"Beautiful One" – 3:28
"Travelling with Charley" – 4:09
"Fine" – 3:11
"Sunday Circus Song" – 3:56
"Hey! Get Out of My Way" – 3:32
"Closing Time" – 10:22
Код:
dBpoweramp Release 14 Digital Audio Extraction Log from Saturday, November 06, 2010 02:43 AM
Drive & Settings
----------------
Ripping with drive 'D:   [HL-DT-ST - DVDRAM GSA-T40N ]',  Drive offset: 667,  Overread Lead-in/out: No
AccurateRip: Active,  Using C2: Yes,  Cache: 1024 KB,  FUA Cache Invalidate: No
Pass 1 Drive Speed: Max,  Pass 2 Drive Speed: Max
Ultra::  Vary Drive Speed: No,  Min Passes: 1,  Max Passes: 2,  Finish After Clean Passes: 1
Bad Sector Re-rip::  Drive Speed: Max,  Maximum Re-reads: 60
Encoder: FLAC -compression-level-8 -verify
DSP Effects / Actions: -dspeffect1="ReplayGain=-albummode={qt}0{qt}"
Extraction Log
--------------
Track 1:  Ripped LBA 0 to 16295 (3:37) in 0:46. Filename: H:\Ripped\The Cardigans\The Cardigans - Life [1995 04 01]\01 Carnival.flac
  AccurateRip: Accurate (confidence 22)     [Pass 1]
  CRC32: E60C2BAD     AccurateRip CRC: 1EF3F9F7     [DiscID: 011-001029c2-008ddfea-900a9f0b-1]
Track 2:  Ripped LBA 16295 to 31465 (3:22) in 0:55. Filename: H:\Ripped\The Cardigans\The Cardigans - Life [1995 04 01]\02 Gordon's Gardenparty.flac
  AccurateRip: Accurate (confidence 22)     [Pass 1]
  CRC32: 24705F63     AccurateRip CRC: A7E61CC8     [DiscID: 011-001029c2-008ddfea-900a9f0b-2]
Track 3:  Ripped LBA 31465 to 47647 (3:35) in 0:46. Filename: H:\Ripped\The Cardigans\The Cardigans - Life [1995 04 01]\03 Daddy's Car.flac
  AccurateRip: Accurate (confidence 22)     [Pass 1]
  CRC32: EAE0B728     AccurateRip CRC: 39E14965     [DiscID: 011-001029c2-008ddfea-900a9f0b-3]
Track 4:  Ripped LBA 47647 to 61320 (3:02) in 0:33. Filename: H:\Ripped\The Cardigans\The Cardigans - Life [1995 04 01]\04 Pikebubbles.flac
  AccurateRip: Accurate (confidence 23)     [Pass 1]
  CRC32: C8FF0A95     AccurateRip CRC: DA5DDD79     [DiscID: 011-001029c2-008ddfea-900a9f0b-4]
Track 5:  Ripped LBA 61320 to 75250 (3:05) in 0:29. Filename: H:\Ripped\The Cardigans\The Cardigans - Life [1995 04 01]\05 Tomorrow.flac
  AccurateRip: Accurate (confidence 22)     [Pass 1]
  CRC32: 9C2C7761     AccurateRip CRC: 1F94261C     [DiscID: 011-001029c2-008ddfea-900a9f0b-5]
Track 6:  Ripped LBA 75250 to 90865 (3:28) in 0:31. Filename: H:\Ripped\The Cardigans\The Cardigans - Life [1995 04 01]\06 Beautiful One.flac
  AccurateRip: Accurate (confidence 23)     [Pass 1]
  CRC32: 72E3AC7D     AccurateRip CRC: 8192D2B2     [DiscID: 011-001029c2-008ddfea-900a9f0b-6]
Track 7:  Ripped LBA 90865 to 109697 (4:11) in 0:38. Filename: H:\Ripped\The Cardigans\The Cardigans - Life [1995 04 01]\07 Travelling With Charley.flac
  AccurateRip: Accurate (confidence 22)     [Pass 1]
  CRC32: 2387CFCD     AccurateRip CRC: 3C73D13B     [DiscID: 011-001029c2-008ddfea-900a9f0b-7]
Track 8:  Ripped LBA 109697 to 123947 (3:10) in 0:28. Filename: H:\Ripped\The Cardigans\The Cardigans - Life [1995 04 01]\08 Fine.flac
  AccurateRip: Accurate (confidence 23)     [Pass 1]
  CRC32: 7CE9928B     AccurateRip CRC: AA08BD23     [DiscID: 011-001029c2-008ddfea-900a9f0b-8]
Track 9:  Ripped LBA 123947 to 141505 (3:54) in 0:30. Filename: H:\Ripped\The Cardigans\The Cardigans - Life [1995 04 01]\09 Sunday Circus Song.flac
  AccurateRip: Accurate (confidence 23)     [Pass 1]
  CRC32: 07CF50DE     AccurateRip CRC: 7D080C6C     [DiscID: 011-001029c2-008ddfea-900a9f0b-9]
Track 10:  Ripped LBA 141505 to 157280 (3:30) in 0:26. Filename: H:\Ripped\The Cardigans\The Cardigans - Life [1995 04 01]\10 Hey! Get Out Of My Way.flac
  AccurateRip: Accurate (confidence 23)     [Pass 1]
  CRC32: 05C14373     AccurateRip CRC: 03819A51     [DiscID: 011-001029c2-008ddfea-900a9f0b-10]
Track 11:  Ripped LBA 157280 to 203995 (10:22) in 1:26. Filename: H:\Ripped\The Cardigans\The Cardigans - Life [1995 04 01]\11 Closing Time.flac
  AccurateRip: Accurate (confidence 22)     [Pass 1]
  CRC32: 916DA607     AccurateRip CRC: 4DC24F13     [DiscID: 011-001029c2-008ddfea-900a9f0b-11]
--------------
11 Tracks Ripped Accurately
Код:
REM GENRE Pop
REM DATE 1995
REM DISCID 900A9F0B
REM COMMENT "ExactAudioCopy v0.99pb5"
PERFORMER "The Cardigans"
TITLE "Life"
FILE "01 Carnival.wav" WAVE
  TRACK 01 AUDIO
    TITLE "Carnival"
    PERFORMER "The Cardigans"
    ISRC SEBKB9529170
    INDEX 01 00:00:00
FILE "02 Gordon's Gardenparty.wav" WAVE
  TRACK 02 AUDIO
    TITLE "Gordon's Gardenparty"
    PERFORMER "The Cardigans"
    ISRC SEBKB9529200
    INDEX 01 00:00:00
FILE "03 Daddy's Car.wav" WAVE
  TRACK 03 AUDIO
    TITLE "Daddy's Car"
    PERFORMER "The Cardigans"
    ISRC SEBKB9529210
    INDEX 01 00:00:00
FILE "04 Pikebubbles.wav" WAVE
  TRACK 04 AUDIO
    TITLE "Pikebubbles"
    PERFORMER "The Cardigans"
    ISRC SEBKB9529220
    INDEX 01 00:00:00
FILE "05 Tomorrow.wav" WAVE
  TRACK 05 AUDIO
    TITLE "Tomorrow"
    PERFORMER "The Cardigans"
    ISRC SEBKB9529230
    INDEX 01 00:00:00
FILE "06 Beautiful One.wav" WAVE
  TRACK 06 AUDIO
    TITLE "Beautiful One"
    PERFORMER "The Cardigans"
    ISRC SEBKB9529240
    INDEX 01 00:00:00
FILE "07 Travelling With Charley.wav" WAVE
  TRACK 07 AUDIO
    TITLE "Travelling With Charley"
    PERFORMER "The Cardigans"
    ISRC SEBKB9529250
    INDEX 01 00:00:00
FILE "08 Fine.wav" WAVE
  TRACK 08 AUDIO
    TITLE "Fine"
    PERFORMER "The Cardigans"
    ISRC SEBKB9529260
    INDEX 01 00:00:00
FILE "09 Sunday Circus Song.wav" WAVE
  TRACK 09 AUDIO
    TITLE "Sunday Circus Song"
    PERFORMER "The Cardigans"
    ISRC SEBKB9529270
    INDEX 01 00:00:00
FILE "10 Hey! Get Out Of My Way.wav" WAVE
  TRACK 10 AUDIO
    TITLE "Hey! Get Out Of My Way"
    PERFORMER "The Cardigans"
    ISRC SEBKB9529280
    INDEX 01 00:00:00
FILE "11 Closing Time.wav" WAVE
  TRACK 11 AUDIO
    TITLE "Closing Time"
    PERFORMER "The Cardigans"
    ISRC SEBKB9529290
    INDEX 01 00:00:00
Правила, инструкции, FAQ!!!
Торрент  Добавлен [26 мар 2019, 20:27] Скачать торрент Магнет ссылка
Скачать торрент
[ Размер 23.73 КБ / Просмотров 6 ]

Статус
Проверен 
 
Размер  282.51 МБ
Приватный: Нет (DHT включён)
.torrent скачан  0
 


     Отправить личное сообщение
   
Страница 1 из 1
Показать сообщения за:  Поле сортировки  
Начать новую тему Ответить на тему


Сейчас этот форум просматривают: нет зарегистрированных пользователей и гости: 0


Вы не можете начинать темы
Вы не можете отвечать на сообщения
Вы не можете редактировать свои сообщения
Вы не можете удалять свои сообщения
Вы не можете добавлять вложения

Перейти:  
cron