Начать новую тему Ответить на тему
Статистика раздачи
Размер: 252.68 МБ | Добавлен: 26 мар 2019, 21:04 | Скачали: 0
Сидеров: 0  [0 байт/сек]    Личеров: 0  [0 байт/сек]
Пред. тема | След. тема 

Автор
Сообщение

СообщениеДобавлено: 26 мар 2019, 21:04 

Ответить с цитатой 

THE CARDIGANS - first band on the moon
Страна: Швеция
Жанр: Pop/Rock
Год выпуска: 1996
Формат: APE (image + .cue)
Битрейт аудио: lossless
Продолжительность: 39:01
Трэклист:
1. Your New Cuckoo
2. Been It
3. Heartbreaker
4. Happy Meal II
5. Never Recover
6. Step On Me
7. Lovefool
8. Losers
9. Iron Man
10. Great Divide
11. Choke
Код:
Exact Audio Copy V0.99 prebeta 3 from 28. July 2007
Отчёт EAC об извлечении, выполненном 14. октября 2007, 23:54
Cardigans / First Band On The Moon
Дисковод: PIONEER DVD-RW  DVR-109   Adapter: 0  ID: 1
Режим чтения                 : Достоверность
Использование точного потока : Да
Отключение кэша аудио        : Да
Использование указателей C2  : Нет
Коррекция смещения при чтении                     : 48
Способность читать области Lead-in и Lead-out     : Нет
Заполнение пропущенных сэмплов тишиной            : Да
Удаление блоков с тишиной в начале и конце        : Нет
При вычислениях CRC использовались нулевые сэмплы : Да
Интерфейс                                         : Установленный внешний ASPI-интерфейс
Выходной формат : Внутренние WAV-операции
Формат сэмплов  : 44.100 Гц; 16 бит; стерео
TOC извлечённого CD
     Трек |   Старт  | Длительность | Начальный сектор | Конечный сектор
    ---------------------------------------------------------------------
       1  |  0:00.00 |    3:55.32   |           0      |      17656
       2  |  3:55.32 |    4:04.60   |       17657      |      36016
       3  |  8:00.17 |    3:42.15   |       36017      |      52681
       4  | 11:42.32 |    2:36.23   |       52682      |      64404
       5  | 14:18.55 |    3:20.52   |       64405      |      79456
       6  | 17:39.32 |    3:53.53   |       79457      |      96984
       7  | 21:33.10 |    3:13.67   |       96985      |     111526
       8  | 24:47.02 |    3:17.25   |      111527      |     126326
       9  | 28:04.27 |    4:19.53   |      126327      |     145804
      10  | 32:24.05 |    3:16.27   |      145805      |     160531
      11  | 35:40.32 |    3:26.43   |      160532      |     176024
Характеристики диапазона извлечения и сообщения об ошибках
Выбранный диапазон
     Имя файла Z:\Temp\Cardigans - First Band On The Moon.wav
     Пиковый уровень 98.0 %
     Качество диапазона 100.0 %
     CRC копии 5D5D8A06
     Копирование... OK
Ошибок не произошло
AccurateRip: сводка
Трек  1  точное извлечение (доверие 3)  [3BCDF7FD]
Трек  2  точное извлечение (доверие 3)  [1043B862]
Трек  3  точное извлечение (доверие 3)  [0070F7AA]
Трек  4  точное извлечение (доверие 3)  [727ED08E]
Трек  5  точное извлечение (доверие 3)  [F4E0B898]
Трек  6  точное извлечение (доверие 3)  [C511BD7A]
Трек  7  точное извлечение (доверие 3)  [68198498]
Трек  8  точное извлечение (доверие 3)  [4F1EDB25]
Трек  9  точное извлечение (доверие 3)  [56E21A84]
Трек 10  точное извлечение (доверие 3)  [15DD7AB6]
Трек 11  точное извлечение (доверие 3)  [781AAC95]
Все треки извлечены точно
Конец отчёта
Правила, инструкции, FAQ!!!
Торрент  Добавлен [26 мар 2019, 21:04] Скачать торрент Магнет ссылка
Скачать торрент
[ Размер 40.29 КБ / Просмотров 2 ]

Статус
Проверен 
 
Размер  252.68 МБ
Приватный: Нет (DHT включён)
.torrent скачан  0
 


     Отправить личное сообщение
   
Страница 1 из 1
Показать сообщения за:  Поле сортировки  
Начать новую тему Ответить на тему


Сейчас этот форум просматривают: нет зарегистрированных пользователей и гости: 0


Вы не можете начинать темы
Вы не можете отвечать на сообщения
Вы не можете редактировать свои сообщения
Вы не можете удалять свои сообщения
Вы не можете добавлять вложения

Перейти:  
cron