Начать новую тему Ответить на тему
Статистика раздачи
Размер: 254.37 МБ | Добавлен: 26 мар 2019, 20:31 | Скачали: 1
Сидеров: 1  [0 байт/сек]    Личеров: 6  [0 байт/сек]
Пред. тема | След. тема 

Автор
Сообщение

СообщениеДобавлено: 26 мар 2019, 20:31 

Ответить с цитатой 

The Band Of Holy Joy - Manic, Magic, Majestic
Жанр: Pop/Rock
Год выпуска диска: 1989
Производитель диска: USA
Аудио кодек: FLAC
Тип рипа: image+.cue
Битрейт аудио: lossless
Продолжительность: 0:39:49.08
Трэклист:
1. Route to Love
2. Baubles, Bangles, Emotional Tangles
3. Nightjars
4. Tactless
5. You've Grown So Old in My Dreams
6. Killy Car Thieves
7. Where It Hurts
8. Bride
9. Manic, Magic, Majestic
10. What the Moon Saw
11. You're Not Singing Anymore
12. Blessed Boy
Exact Audio Copy V0.99 prebeta 5 from 4. May 2009
EAC extraction logfile from 23. January 2010, 0:00
The Band Of Holy Joy / Manic, Magic, Majestic
Used drive : _NEC DVD_RW ND-3520A Adapter: 0 ID: 0
Read mode : Secure
Utilize accurate stream : Yes
Defeat audio cache : Yes
Make use of C2 pointers : No
Read offset correction : 48
Overread into Lead-In and Lead-Out : No
Fill up missing offset samples with silence : Yes
Delete leading and trailing silent blocks : No
Null samples used in CRC calculations : Yes
Used interface : Native Win32 interface for Win NT & 2000
Used output format : User Defined Encoder
Selected bitrate : 128 kBit/s
Quality : High
Add ID3 tag : No
Command line compressor : C:\Tools\Audio\Exact Audio Copy\Flac\flac.exe
Additional command line options : -T "DATE=%y" -T "GENRE=%m" -8 -V %s
TOC of the extracted CD
Track | Start | Length | Start sector | End sector
---------------------------------------------------------
1 | 0:00.32 | 3:03.10 | 32 | 13766
2 | 3:03.42 | 3:16.38 | 13767 | 28504
3 | 6:20.05 | 2:50.22 | 28505 | 41276
4 | 9:10.27 | 4:14.53 | 41277 | 60379
5 | 13:25.05 | 2:38.25 | 60380 | 72254
6 | 16:03.30 | 2:43.10 | 72255 | 84489
7 | 18:46.40 | 3:31.25 | 84490 | 100339
8 | 22:17.65 | 3:10.72 | 100340 | 114661
9 | 25:28.62 | 3:38.18 | 114662 | 131029
10 | 29:07.05 | 2:47.40 | 131030 | 143594
11 | 31:54.45 | 4:13.57 | 143595 | 162626
12 | 36:08.27 | 3:41.13 | 162627 | 179214
Range status and errors
Selected range
Filename E:\Torrents\Band of Holy Joy\The Band Of Holy Joy - Manic, Magic, Majestic.wav
Peak level 100.0 %
Range quality 99.9 %
Test CRC 668AB6B7
Copy CRC 668AB6B7
Copy OK
No errors occurred
AccurateRip summary
Track 1 not present in database
Track 2 not present in database
Track 3 not present in database
Track 4 not present in database
Track 5 not present in database
Track 6 not present in database
Track 7 not present in database
Track 8 not present in database
Track 9 not present in database
Track 10 not present in database
Track 11 not present in database
Track 12 not present in database
None of the tracks are present in the AccurateRip database
End of status report
The second album by the the Band of Holy Joy saw the band move from Flim Flam to major U.K. independent label Rough Trade. Main music writer Max left the band, leaving much of the composing to Big John. The emotions still swirled and swooned as on their previous album More Tales From the City, but the music and production is smoother and more accomplished. Undoubtedly the highlight is "What the Moon Saw" where soaring violins crescendo as the starstruck lover's world comes crashing down. Although filled with melancholy and desperation -- "Baubles, Bangles, Emotional Tangles" relates the story of becoming pregnant but not by the one she loves -- the Holy Joy also describe the feeling of rapture, whether that's making a new start with a loved one, "Bride," or the title track "Manic, Magic, Majestic," where possessions take second place to the happy-go-lucky charm of the heroine. On releasing the single "Tactless," the video filmed the band performing in an out-of-season seaside resort, which sums up this album very nicely.Review by Christian Smilliehttp://www.allmusic.com/cg/amg.dll?p=amg&sql=10:0ifrxql5ldje
Правила, инструкции, FAQ!!!
Торрент  Добавлен [26 мар 2019, 20:31] Скачать торрент Магнет ссылка
Скачать торрент
[ Размер 20.73 КБ / Просмотров 3 ]

Статус
Проверен 
 
Размер  254.37 МБ
Приватный: Нет (DHT включён)
.torrent скачан  1
 


     Отправить личное сообщение
   
Страница 1 из 1
Показать сообщения за:  Поле сортировки  
Начать новую тему Ответить на тему


Сейчас этот форум просматривают: нет зарегистрированных пользователей и гости: 0


Вы не можете начинать темы
Вы не можете отвечать на сообщения
Вы не можете редактировать свои сообщения
Вы не можете удалять свои сообщения
Вы не можете добавлять вложения

Перейти:  
cron