Начать новую тему Ответить на тему
Статистика раздачи
Размер: 400.6 МБ | Добавлен: 26 мар 2019, 19:47 | Скачали: 0
Сидеров: 0  [0 байт/сек]    Личеров: 5  [0 байт/сек]
Пред. тема | След. тема 

Автор
Сообщение

СообщениеДобавлено: 26 мар 2019, 19:47 

Ответить с цитатой 

The Band Of Holy Joy
/ Leaves That Fall In Spring - Seminal Moments
Жанр: Pop-Rock
Страна-производитель диска
: UK
Год издания: 2007
Издатель (лейбл): Cherry Red
Страна: UK
Аудиокодек: FLAC (*.flac)
Тип рипа: tracks+.cue
Битрейт аудио: lossless
Продолжительность: 1:04:49
Источник (релизер): what.cd(wolfetonedeaf)
Наличие сканов в содержимом раздачи: нет
1. Rosemary Smith
2. First Hour Of Day
3. Manic, Magic, Majestic
4. Leaves That Fall In Spring
5. And Then The Real Thing Comes Along
6. Prams Piers Bitter Tears
7. It's Lovebite City
8. Who Snatched The Baby?
9. Tactless
10. Consumption
11. Capture My Soul
12. What The Moon Saw
13. You've Grown So Old In My Dreams
14. Real Beauty Passed Through
15. The Death Of Love
16. Maybe One Day
Код:
Exact Audio Copy V1.0 beta 2 from 29. April 2011
EAC extraction logfile from 14. September 2011, 14:23
Band Of Holy Joy / Leaves That Fall In Spring
Used drive  : TSSTcorpCDDVDW SH-S223C   Adapter: 3  ID: 0
Read mode : Fast
Read offset correction                      : 697
Overread into Lead-In and Lead-Out          : No
Fill up missing offset samples with silence : Yes
Delete leading and trailing silent blocks   : No
Null samples used in CRC calculations       : Yes
Used interface                              : Native Win32 interface for Win NT & 2000
Gap handling                                : Appended to previous track
Used output format              : User Defined Encoder
Selected bitrate                : 1024 kBit/s
Quality                         : High
Add ID3 tag                     : No
Command line compressor         : C:\Program Files\Exact Audio Copy\Flac\flac.exe
Additional command line options : -8 -V -T "ARTIST=%artist%" -T "TITLE=%title%" -T "ALBUM=%albumtitle%" -T "DATE=%year%" -T "TRACKNUMBER=%tracknr%" -T "GENRE=%genre%" -T "PERFORMER=%albuminterpret%" -T "COMPOSER=%composer%" %haslyrics%--tag-from-file=LYRICS
TOC of the extracted CD
     Track |   Start  |  Length  | Start sector | End sector
    ---------------------------------------------------------
        1  |  0:00.00 |  2:31.05 |         0    |    11329
        2  |  2:31.05 |  2:51.23 |     11330    |    24177
        3  |  5:22.28 |  3:39.11 |     24178    |    40613
        4  |  9:01.39 |  6:11.70 |     40614    |    68508
        5  | 15:13.34 |  6:27.26 |     68509    |    97559
        6  | 21:40.60 |  2:26.04 |     97560    |   108513
        7  | 24:06.64 |  4:40.40 |    108514    |   129553
        8  | 28:47.29 |  4:59.16 |    129554    |   151994
        9  | 33:46.45 |  4:15.21 |    151995    |   171140
       10  | 38:01.66 |  3:22.60 |    171141    |   186350
       11  | 41:24.51 |  4:20.57 |    186351    |   205907
       12  | 45:45.33 |  2:48.26 |    205908    |   218533
       13  | 48:33.59 |  2:40.06 |    218534    |   230539
       14  | 51:13.65 |  4:25.23 |    230540    |   250437
       15  | 55:39.13 |  5:31.05 |    250438    |   275267
       16  | 61:10.18 |  3:39.21 |    275268    |   291713
Track  1
     Filename C:\Users\Reckoning\Desktop\EAC Rips\01 - Rosemary Smith.wav
     Pre-gap length  0:00:02.00
     Peak level 73.9 %
     Extraction speed 2.0 X
     Test CRC B7A4B1C9
     Copy CRC B7A4B1C9
     Accurately ripped (confidence 2)  [A28E0791]  (AR v1)
     Copy OK
Track  2
     Filename C:\Users\Reckoning\Desktop\EAC Rips\02 - First Hour Of Day.wav
     Pre-gap length  0:00:02.00
     Peak level 73.2 %
     Extraction speed 2.3 X
     Test CRC 972E3BE8
     Copy CRC 972E3BE8
     Accurately ripped (confidence 2)  [B7372E52]  (AR v1)
     Copy OK
Track  3
     Filename C:\Users\Reckoning\Desktop\EAC Rips\03 - Manic, Magic, Majestic.wav
     Pre-gap length  0:00:02.00
     Peak level 91.7 %
     Extraction speed 2.5 X
     Test CRC 285B5E15
     Copy CRC 285B5E15
     Accurately ripped (confidence 2)  [D14274A1]  (AR v1)
     Copy OK
Track  4
     Filename C:\Users\Reckoning\Desktop\EAC Rips\04 - Leaves That Fall In Spring.wav
     Pre-gap length  0:00:02.00
     Peak level 78.5 %
     Extraction speed 2.8 X
     Test CRC 5C6FBFC5
     Copy CRC 5C6FBFC5
     Accurately ripped (confidence 2)  [47B788D9]  (AR v1)
     Copy OK
Track  5
     Filename C:\Users\Reckoning\Desktop\EAC Rips\05 - And Then The Real Thing Comes Around.wav
     Pre-gap length  0:00:02.00
     Peak level 55.2 %
     Extraction speed 3.0 X
     Test CRC 812A629D
     Copy CRC 812A629D
     Accurately ripped (confidence 2)  [B783442C]  (AR v1)
     Copy OK
Track  6
     Filename C:\Users\Reckoning\Desktop\EAC Rips\06 - Prams Piers Bitter Tears.wav
     Pre-gap length  0:00:02.00
     Peak level 74.2 %
     Extraction speed 2.7 X
     Test CRC 0381C67D
     Copy CRC 0381C67D
     Accurately ripped (confidence 2)  [0C5D2D2D]  (AR v1)
     Copy OK
Track  7
     Filename C:\Users\Reckoning\Desktop\EAC Rips\07 - It's Lovebite City.wav
     Pre-gap length  0:00:02.00
     Peak level 92.5 %
     Extraction speed 3.1 X
     Test CRC F70E613C
     Copy CRC F70E613C
     Accurately ripped (confidence 2)  [129E5323]  (AR v1)
     Copy OK
Track  8
     Filename C:\Users\Reckoning\Desktop\EAC Rips\08 - Who Snatched The Baby.wav
     Pre-gap length  0:00:02.00
     Peak level 79.8 %
     Extraction speed 3.2 X
     Test CRC 975B07CD
     Copy CRC 975B07CD
     Accurately ripped (confidence 2)  [262C6826]  (AR v1)
     Copy OK
Track  9
     Filename C:\Users\Reckoning\Desktop\EAC Rips\09 - Tactless.wav
     Pre-gap length  0:00:02.00
     Peak level 86.5 %
     Extraction speed 3.2 X
     Test CRC 7D403E92
     Copy CRC 7D403E92
     Accurately ripped (confidence 2)  [583AA4BE]  (AR v1)
     Copy OK
Track 10
     Filename C:\Users\Reckoning\Desktop\EAC Rips\10 - Consumption.wav
     Pre-gap length  0:00:02.00
     Peak level 71.9 %
     Extraction speed 3.2 X
     Test CRC 7676A4EB
     Copy CRC 7676A4EB
     Accurately ripped (confidence 2)  [8B39F5AA]  (AR v1)
     Copy OK
Track 11
     Filename C:\Users\Reckoning\Desktop\EAC Rips\11 - Capture My Soul.wav
     Pre-gap length  0:00:02.00
     Peak level 55.2 %
     Extraction speed 3.4 X
     Test CRC 4B2D653C
     Copy CRC 4B2D653C
     Accurately ripped (confidence 2)  [E07C565D]  (AR v1)
     Copy OK
Track 12
     Filename C:\Users\Reckoning\Desktop\EAC Rips\12 - What The Moon Saw.wav
     Pre-gap length  0:00:02.00
     Peak level 86.2 %
     Extraction speed 3.2 X
     Test CRC 7C17D4FE
     Copy CRC 7C17D4FE
     Accurately ripped (confidence 2)  [1F159551]  (AR v1)
     Copy OK
Track 13
     Filename C:\Users\Reckoning\Desktop\EAC Rips\13 - You've Grown So Old In My Dreams.wav
     Pre-gap length  0:00:02.00
     Peak level 81.9 %
     Extraction speed 3.2 X
     Test CRC 1373F303
     Copy CRC 1373F303
     Accurately ripped (confidence 2)  [F103F191]  (AR v1)
     Copy OK
Track 14
     Filename C:\Users\Reckoning\Desktop\EAC Rips\14 - Real Beauty Passed Through.wav
     Pre-gap length  0:00:02.00
     Peak level 92.5 %
     Extraction speed 3.5 X
     Test CRC 9B39C093
     Copy CRC 9B39C093
     Accurately ripped (confidence 2)  [9F65185E]  (AR v1)
     Copy OK
Track 15
     Filename C:\Users\Reckoning\Desktop\EAC Rips\15 - The Death Of  Love.wav
     Pre-gap length  0:00:02.00
     Peak level 55.2 %
     Extraction speed 3.7 X
     Test CRC 804194A3
     Copy CRC 804194A3
     Accurately ripped (confidence 2)  [45593937]  (AR v1)
     Copy OK
Track 16
     Filename C:\Users\Reckoning\Desktop\EAC Rips\16 - Maybe One Day.wav
     Pre-gap length  0:00:02.00
     Peak level 73.1 %
     Extraction speed 3.9 X
     Test CRC 8FB04A90
     Copy CRC 8FB04A90
     Accurately ripped (confidence 2)  [D3FE28BC]  (AR v1)
     Copy OK
All tracks accurately ripped
No errors occurred
End of status report
==== Log checksum 2A6022BFB17BB656D1A161292DA06A5CFE1DA74147E59DBD72824BAB11D39571 ====
Код:
REM GENRE Pop
REM DATE 2007
REM DISCID D90F3110
REM COMMENT "ExactAudioCopy v1.0b2"
PERFORMER "Band Of Holy Joy"
TITLE "Leaves That Fall In Spring"
FILE "01 - Rosemary Smith.wav" WAVE
  TRACK 01 AUDIO
    TITLE "Rosemary Smith"
    PERFORMER "Band Of Holy Joy"
    ISRC GBBLY0703487
    INDEX 01 00:00:00
  TRACK 02 AUDIO
    TITLE "First Hour Of Day"
    PERFORMER "Band Of Holy Joy"
    ISRC GBBLY0703488
    INDEX 00 02:29:05
FILE "02 - First Hour Of Day.wav" WAVE
    INDEX 01 00:00:00
  TRACK 03 AUDIO
    TITLE "Manic, Magic, Majestic"
    PERFORMER "Band Of Holy Joy"
    ISRC GBBLY0703489
    INDEX 00 02:49:23
FILE "03 - Manic, Magic, Majestic.wav" WAVE
    INDEX 01 00:00:00
  TRACK 04 AUDIO
    TITLE "Leaves That Fall In Spring"
    PERFORMER "Band Of Holy Joy"
    ISRC GBBLY0703490
    INDEX 00 03:37:11
FILE "04 - Leaves That Fall In Spring.wav" WAVE
    INDEX 01 00:00:00
  TRACK 05 AUDIO
    TITLE "And Then The Real Thing Comes Around"
    PERFORMER "Band Of Holy Joy"
    ISRC GBBLY0703491
    INDEX 00 06:09:70
FILE "05 - And Then The Real Thing Comes Around.wav" WAVE
    INDEX 01 00:00:00
  TRACK 06 AUDIO
    TITLE "Prams Piers Bitter Tears"
    PERFORMER "Band Of Holy Joy"
    ISRC GBBLY0703492
    INDEX 00 06:25:26
FILE "06 - Prams Piers Bitter Tears.wav" WAVE
    INDEX 01 00:00:00
  TRACK 07 AUDIO
    TITLE "It's Lovebite City"
    PERFORMER "Band Of Holy Joy"
    ISRC GBBLY0703493
    INDEX 00 02:24:04
FILE "07 - It's Lovebite City.wav" WAVE
    INDEX 01 00:00:00
  TRACK 08 AUDIO
    TITLE "Who Snatched The Baby?"
    PERFORMER "Band Of Holy Joy"
    ISRC GBBLY0703494
    INDEX 00 04:38:40
FILE "08 - Who Snatched The Baby.wav" WAVE
    INDEX 01 00:00:00
  TRACK 09 AUDIO
    TITLE "Tactless"
    PERFORMER "Band Of Holy Joy"
    ISRC GBBLY0703495
    INDEX 00 04:57:16
FILE "09 - Tactless.wav" WAVE
    INDEX 01 00:00:00
  TRACK 10 AUDIO
    TITLE "Consumption"
    PERFORMER "Band Of Holy Joy"
    ISRC GBBLY0703496
    INDEX 00 04:13:21
FILE "10 - Consumption.wav" WAVE
    INDEX 01 00:00:00
  TRACK 11 AUDIO
    TITLE "Capture My Soul"
    PERFORMER "Band Of Holy Joy"
    ISRC GBBLY0703497
    INDEX 00 03:20:60
FILE "11 - Capture My Soul.wav" WAVE
    INDEX 01 00:00:00
  TRACK 12 AUDIO
    TITLE "What The Moon Saw"
    PERFORMER "Band Of Holy Joy"
    ISRC GBBLY0703498
    INDEX 00 04:18:57
FILE "12 - What The Moon Saw.wav" WAVE
    INDEX 01 00:00:00
  TRACK 13 AUDIO
    TITLE "You've Grown So Old In My Dreams"
    PERFORMER "Band Of Holy Joy"
    ISRC GBBLY0703499
    INDEX 00 02:46:26
FILE "13 - You've Grown So Old In My Dreams.wav" WAVE
    INDEX 01 00:00:00
  TRACK 14 AUDIO
    TITLE "Real Beauty Passed Through"
    PERFORMER "Band Of Holy Joy"
    ISRC GBBLY0703500
    INDEX 00 02:38:06
FILE "14 - Real Beauty Passed Through.wav" WAVE
    INDEX 01 00:00:00
  TRACK 15 AUDIO
    TITLE "The Death Of  Love"
    PERFORMER "Band Of Holy Joy"
    ISRC GBBLY0703501
    INDEX 00 04:23:23
FILE "15 - The Death Of  Love.wav" WAVE
    INDEX 01 00:00:00
  TRACK 16 AUDIO
    TITLE "Maybe One Day"
    PERFORMER "Band Of Holy Joy"
    ISRC GBBLY0703502
    INDEX 00 05:29:05
FILE "16 - Maybe One Day.wav" WAVE
    INDEX 01 00:00:00
Правила, инструкции, FAQ!!!
Торрент  Добавлен [26 мар 2019, 19:47] Скачать торрент Магнет ссылка
Скачать торрент
[ Размер 17.38 КБ / Просмотров 2 ]

Статус
Проверен 
 
Размер  400.6 МБ
Приватный: Нет (DHT включён)
.torrent скачан  0
 


     Отправить личное сообщение
   
Страница 1 из 1
Показать сообщения за:  Поле сортировки  
Начать новую тему Ответить на тему


Сейчас этот форум просматривают: нет зарегистрированных пользователей и гости: 0


Вы не можете начинать темы
Вы не можете отвечать на сообщения
Вы не можете редактировать свои сообщения
Вы не можете удалять свои сообщения
Вы не можете добавлять вложения

Перейти:  
cron