Начать новую тему Ответить на тему
Статистика раздачи
Размер: 328.26 МБ | Добавлен: 26 мар 2019, 21:05 | Скачали: 0
Сидеров: 3  [0 байт/сек]    Личеров: 4  [0 байт/сек]
Пред. тема | След. тема 

Автор
Сообщение

СообщениеДобавлено: 26 мар 2019, 21:05 

Ответить с цитатой 

The Bablers - What's All About
Жанр: Pop Rock
Страна-производитель диска: Finland
Год издания: 1980 (Remaster 2012)
Издатель (лейбл): LP Hi-Hat Records (Finland), Viktor Records
Номер по каталогу: HILP145, VKCDO7
Страна: Finland
Аудиокодек: FLAC (*.flac)
Тип рипа: image+.cue
Битрейт аудио: lossless
Продолжительность: 42:37
Источник (релизер): vinni2009 на nnm.ru
Наличие сканов в содержимом раздачи: да
Спасибо всем, кто помог мне вернуть раздачу на трекер:
BozMozzis
за образ и progbeard+ за первозданный cue-файл!
Треклист:
01. On The Morning Of The Senenth Day [0:03:55.70]
02. Imaginary Land [0:04:20.41]
03. Witchy Woman [0:03:29.38]
04. She Said [0:04:43.73]
05. What Can I Do [0:02:41.09]
06. Dream (Part One) [0:02:06.03]
07. What's All About [0:02:12.52]
08. Walkin' On Side Walks [0:03:14.73]
09. McKinley's Birthday Party [0:03:18.13]
10. Mr. Lazy [0:03:06.10]
11. Oh, No! [0:02:15.20]
12. Dream (Part Two) [0:02:27.42]
13. Everybody Gotta Have A One [0:04:45.51]
Код:
Exact Audio Copy V1.0 beta 1 from 15. November 2010
EAC extraction logfile from 31. December 2012, 0:22
The Bablers / What's All About
Used drive  : ATAPI   iHAP122   W   Adapter: 1  ID: 0
Read mode               : Secure
Utilize accurate stream : Yes
Defeat audio cache      : Yes
Make use of C2 pointers : No
Read offset correction                      : 6
Overread into Lead-In and Lead-Out          : No
Fill up missing offset samples with silence : Yes
Delete leading and trailing silent blocks   : No
Null samples used in CRC calculations       : Yes
Used interface                              : Native Win32 interface for Win NT & 2000
Used output format : Internal WAV Routines
Sample format      : 44.100 Hz; 16 Bit; Stereo
TOC of the extracted CD
     Track |   Start  |  Length  | Start sector | End sector
    ---------------------------------------------------------
        1  |  0:00.00 |  3:55.70 |         0    |    17694
        2  |  3:55.70 |  4:20.41 |     17695    |    37235
        3  |  8:16.36 |  3:29.38 |     37236    |    52948
        4  | 11:45.74 |  4:43.73 |     52949    |    74246
        5  | 16:29.72 |  2:41.09 |     74247    |    86330
        6  | 19:11.06 |  2:06.03 |     86331    |    95783
        7  | 21:17.09 |  2:12.52 |     95784    |   105735
        8  | 23:29.61 |  3:14.73 |    105736    |   120358
        9  | 26:44.59 |  3:18.13 |    120359    |   135221
       10  | 30:02.72 |  3:06.10 |    135222    |   149181
       11  | 33:09.07 |  2:15.20 |    149182    |   159326
       12  | 35:24.27 |  2:27.42 |    159327    |   170393
       13  | 37:51.69 |  4:45.51 |    170394    |   191819
Range status and errors
Selected range
     Filename C:\MusicBox\The Bablers - What's All About.wav
     Peak level 100.0 %
     Extraction speed 0.9 X
     Range quality 100.0 %
     Copy CRC F68FC036
     Copy OK
No errors occurred
AccurateRip summary
Track  1  not present in database
Track  2  not present in database
Track  3  not present in database
Track  4  not present in database
Track  5  not present in database
Track  6  not present in database
Track  7  not present in database
Track  8  not present in database
Track  9  not present in database
Track 10  not present in database
Track 11  not present in database
Track 12  not present in database
Track 13  not present in database
None of the tracks are present in the AccurateRip database
End of status report
Код:
AUDIOCHECKER v2.0 beta (build 457) — by Dester — opdester@freemail.hu
~~~~~~~~~~~~~~~~~~~~~~~~~~~~~~~~~~
Начато: понедельник, 31. 12. 2012. — 0:27.36
Найдено файлов: 1
1 -===- C:\MusicBox\The Bablers — What's All About.flac
Извлечение успешно выполнено
Заключение: этот трек — CDDA с вероятностью 100%
Временный файл удалён.
Завершено: понедельник, 31. 12. 2012. — 0:32.40 (Время операции: 0:05.03)
Альбом Финской группы The Bablers "What's All About" никогда не издавался на CD, только на виниле пару раз, винил запилен... но сохранилась копия (80-х) на бобине, рип и remaster сделал Alexach и выложил альбом в первый раз в инет только вчера (flac-tracks), из сканов только front, я еще раз пропустил через один фильтр и сделал CD (сканы самопал), судя по репертуару эта группа явно попала под влияние творчества Битлов. У них есть еще один альбом уже на CD... но в инете его не скачать... только купить, но послушать песни можно..., поют на Английском.
Правила, инструкции, FAQ!!!
Торрент  Добавлен [26 мар 2019, 21:05] Скачать торрент Магнет ссылка
Скачать торрент
[ Размер 13.7 КБ / Просмотров 7 ]

Статус
Проверен 
 
Размер  328.26 МБ
Приватный: Нет (DHT включён)
.torrent скачан  0
 


     Отправить личное сообщение
   
Страница 1 из 1
Показать сообщения за:  Поле сортировки  
Начать новую тему Ответить на тему


Сейчас этот форум просматривают: нет зарегистрированных пользователей и гости: 0


Вы не можете начинать темы
Вы не можете отвечать на сообщения
Вы не можете редактировать свои сообщения
Вы не можете удалять свои сообщения
Вы не можете добавлять вложения

Перейти:  
cron