Начать новую тему Ответить на тему
Статистика раздачи
Размер: 503.57 МБ | Добавлен: 26 мар 2019, 21:06 | Скачали: 0
Сидеров: 1  [0 байт/сек]    Личеров: 1  [0 байт/сек]
Пред. тема | След. тема 

Автор
Сообщение

СообщениеДобавлено: 26 мар 2019, 21:06 

Ответить с цитатой 

The Association - Live
Жанр: Pop Rock
Страна-производитель диска: USA
Год издания диска: 2003
Издатель (лейбл): Collectors' Choice Music
Номер по каталогу: CCM-384-2
Страна: USA
Аудиокодек: FLAC (*.flac)
Тип рипа: tracks+.cue
Битрейт аудио: lossless
Продолжительность: 01:14:31
Источник (релизер): суслик
Наличие сканов в содержимом раздачи:
Треклист:
01. Dream Girl (Ted Bluechel) 01:36
02. One Too Many Mornings (Bob Dylan) 02:52
03. Along Comes Mary (Tandyn Almer) 05:23
04. I'll Be Your Man (Russ Giguere) 03:20
05. Goodbye Columbus (Jim Yester) 02:29
06. Let's Get Together (Chet Powers) 03:22
07. Wasn't It A Bit Like Now (Terry Kirkman) 04:35
08. Never My Love (Don Addrisi, Dick Addrisi) 03:12
09. Goodbye Forever (Jules Alexander, Rita Martinson, Terry Kirkman) 02:49
10. Just About The Same (Rhodes, Stec, Fennelly, Mallory, Edgar) 02:51
11. Babe I'm Gonna Leave You (Anne Bredon) 03:43
12. Seven Man Band (Terry Kirkman) 02:25
13. The Time Is Today (Russ Giguere) 03:02
14. Dubuque Blues (Jules Alexander) 04:42
15. Blistered (Billy Edd Wheeler) 02:58
16. What Were The Words (Jim Yester) 02:28
17. Remember (Jules Alexander) 03:19
18. Are You Ready (Larry Ramos, Tony Ortega) 02:52
19. Cherish (Terry Kirkman) 05:15
20. Requiem For The Masses (Terry Kirkman) 04:28
21. Windy (Ruthann Friedman) 03:41
22. Enter The Young (Terry Kirkman) 03:09
Код:
EAC extraction logfile from 27. November 2008, 13:33 for CD
The Association / The Association ''Live''
Used drive  : TSSTcorpCDDVDW TS-H653N   Adapter: 1  ID: 1
Read mode   : Secure with NO C2, accurate stream, NO disable cache
Read offset correction : 6
Overread into Lead-In and Lead-Out : No
Used output format : C:\Program Files\FLAC\flac.exe   (User Defined Encoder)
                     320 kBit/s
                     Additional command line options : -V -8 -T "artist=%a" -T "title=%t" -T "album=%g" -T "date=%y" -T "tracknumber=%n" -T "genre=%m" %s
Other options      :
    Fill up missing offset samples with silence : Yes
    Delete leading and trailing silent blocks : No
    Installed external ASPI interface
Track  1
     Filename J:\MUSIC\New Torrents\The Association - Live [1970]\The Association\The Association ''Live''\01 - Dream Girl.wav
     Pre-gap length  0:00:02.00
     Peak level 80.5 %
     Track quality 100.0 %
     Test CRC B1227863
     Copy CRC B1227863
     Copy OK
Track  2
     Filename J:\MUSIC\New Torrents\The Association - Live [1970]\The Association\The Association ''Live''\02 - One Too Many Mornings.wav
     Peak level 97.2 %
     Track quality 100.0 %
     Test CRC 7833530A
     Copy CRC 7833530A
     Copy OK
Track  3
     Filename J:\MUSIC\New Torrents\The Association - Live [1970]\The Association\The Association ''Live''\03 - Along Comes Mary.wav
     Peak level 97.2 %
     Track quality 100.0 %
     Test CRC 2BC64727
     Copy CRC 2BC64727
     Copy OK
Track  4
     Filename J:\MUSIC\New Torrents\The Association - Live [1970]\The Association\The Association ''Live''\04 - I'll Be Your Man.wav
     Peak level 97.2 %
     Track quality 100.0 %
     Test CRC 65C029CD
     Copy CRC 65C029CD
     Copy OK
Track  5
     Filename J:\MUSIC\New Torrents\The Association - Live [1970]\The Association\The Association ''Live''\05 - Goodbye Columbus.wav
     Peak level 97.2 %
     Track quality 100.0 %
     Test CRC D65EA203
     Copy CRC D65EA203
     Copy OK
Track  6
     Filename J:\MUSIC\New Torrents\The Association - Live [1970]\The Association\The Association ''Live''\06 - Let's Get Together.wav
     Peak level 97.2 %
     Track quality 100.0 %
     Test CRC 9F8068AA
     Copy CRC 9F8068AA
     Copy OK
Track  7
     Filename J:\MUSIC\New Torrents\The Association - Live [1970]\The Association\The Association ''Live''\07 - Wasn't It A Bit Like Now.wav
     Peak level 97.2 %
     Track quality 100.0 %
     Test CRC 7EEF1A45
     Copy CRC 7EEF1A45
     Copy OK
Track  8
     Filename J:\MUSIC\New Torrents\The Association - Live [1970]\The Association\The Association ''Live''\08 - Never My Love.wav
     Peak level 97.2 %
     Track quality 99.9 %
     Test CRC 3D90F95F
     Copy CRC 3D90F95F
     Copy OK
Track  9
     Filename J:\MUSIC\New Torrents\The Association - Live [1970]\The Association\The Association ''Live''\09 - Goodbye Forever.wav
     Peak level 97.2 %
     Track quality 100.0 %
     Test CRC 6F66F916
     Copy CRC 6F66F916
     Copy OK
Track 10
     Filename J:\MUSIC\New Torrents\The Association - Live [1970]\The Association\The Association ''Live''\10 - Just About The Same.wav
     Peak level 97.2 %
     Track quality 99.9 %
     Test CRC 2B02215B
     Copy CRC 2B02215B
     Copy OK
Track 11
     Filename J:\MUSIC\New Torrents\The Association - Live [1970]\The Association\The Association ''Live''\11 - Babe I'm Gonna Leave You.wav
     Peak level 97.2 %
     Track quality 100.0 %
     Test CRC 02E21515
     Copy CRC 02E21515
     Copy OK
Track 12
     Filename J:\MUSIC\New Torrents\The Association - Live [1970]\The Association\The Association ''Live''\12 - Seven Man Band.wav
     Pre-gap length  0:00:25.28
     Peak level 97.2 %
     Track quality 100.0 %
     Test CRC CBD2B72D
     Copy CRC CBD2B72D
     Copy OK
Track 13
     Filename J:\MUSIC\New Torrents\The Association - Live [1970]\The Association\The Association ''Live''\13 - The Time Is Today.wav
     Pre-gap length  0:00:04.34
     Peak level 97.2 %
     Track quality 99.9 %
     Test CRC F9E0A5CC
     Copy CRC F9E0A5CC
     Copy OK
Track 14
     Filename J:\MUSIC\New Torrents\The Association - Live [1970]\The Association\The Association ''Live''\14 - Dubuque Blues.wav
     Peak level 97.2 %
     Track quality 100.0 %
     Test CRC E060141F
     Copy CRC E060141F
     Copy OK
Track 15
     Filename J:\MUSIC\New Torrents\The Association - Live [1970]\The Association\The Association ''Live''\15 - Blistered.wav
     Peak level 97.2 %
     Track quality 100.0 %
     Test CRC 23CA73CD
     Copy CRC 23CA73CD
     Copy OK
Track 16
     Filename J:\MUSIC\New Torrents\The Association - Live [1970]\The Association\The Association ''Live''\16 - What Were The Words.wav
     Peak level 97.2 %
     Track quality 100.0 %
     Test CRC C11120B1
     Copy CRC C11120B1
     Copy OK
Track 17
     Filename J:\MUSIC\New Torrents\The Association - Live [1970]\The Association\The Association ''Live''\17 - Remember.wav
     Peak level 75.0 %
     Track quality 100.0 %
     Test CRC 8747ABF7
     Copy CRC 8747ABF7
     Copy OK
Track 18
     Filename J:\MUSIC\New Torrents\The Association - Live [1970]\The Association\The Association ''Live''\18 - Are You Ready.wav
     Pre-gap length  0:00:38.18
     Peak level 97.2 %
     Track quality 100.0 %
     Test CRC 74B60849
     Copy CRC 74B60849
     Copy OK
Track 19
     Filename J:\MUSIC\New Torrents\The Association - Live [1970]\The Association\The Association ''Live''\19 - Cherish.wav
     Peak level 97.2 %
     Track quality 100.0 %
     Test CRC EB6AF44D
     Copy CRC EB6AF44D
     Copy OK
Track 20
     Filename J:\MUSIC\New Torrents\The Association - Live [1970]\The Association\The Association ''Live''\20 - Requiem For The Masses.wav
     Peak level 97.2 %
     Track quality 99.9 %
     Test CRC 888410AB
     Copy CRC 888410AB
     Copy OK
Track 21
     Filename J:\MUSIC\New Torrents\The Association - Live [1970]\The Association\The Association ''Live''\21 - Windy.wav
     Peak level 97.2 %
     Track quality 100.0 %
     Test CRC 8FFD91A6
     Copy CRC 8FFD91A6
     Copy OK
Track 22
     Filename J:\MUSIC\New Torrents\The Association - Live [1970]\The Association\The Association ''Live''\22 - Enter The Young.wav
     Peak level 97.2 %
     Track quality 100.0 %
     Test CRC 3CD0C442
     Copy CRC 3CD0C442
     Copy OK
No errors occured
End of status report
Код:
REM GENRE Rock
REM DATE 1970
REM DISCID 46117616
REM COMMENT "ExactAudioCopy v0.95b4"
PERFORMER "The Association"
TITLE "The Association ''Live''"
FILE "01 - Dream Girl.wav" WAVE
  TRACK 01 AUDIO
    TITLE "Dream Girl"
    PERFORMER "The Association"
    INDEX 01 00:00:00
FILE "02 - One Too Many Mornings.wav" WAVE
  TRACK 02 AUDIO
    TITLE "One Too Many Mornings"
    PERFORMER "The Association"
    INDEX 01 00:00:00
FILE "03 - Along Comes Mary.wav" WAVE
  TRACK 03 AUDIO
    TITLE "Along Comes Mary"
    PERFORMER "The Association"
    INDEX 01 00:00:00
FILE "04 - I'll Be Your Man.wav" WAVE
  TRACK 04 AUDIO
    TITLE "I'll Be Your Man"
    PERFORMER "The Association"
    INDEX 01 00:00:00
FILE "05 - Goodbye Columbus.wav" WAVE
  TRACK 05 AUDIO
    TITLE "Goodbye Columbus"
    PERFORMER "The Association"
    INDEX 01 00:00:00
FILE "06 - Let's Get Together.wav" WAVE
  TRACK 06 AUDIO
    TITLE "Let's Get Together"
    PERFORMER "The Association"
    INDEX 01 00:00:00
FILE "07 - Wasn't It A Bit Like Now.wav" WAVE
  TRACK 07 AUDIO
    TITLE "Wasn't It A Bit Like Now"
    PERFORMER "The Association"
    INDEX 01 00:00:00
FILE "08 - Never My Love.wav" WAVE
  TRACK 08 AUDIO
    TITLE "Never My Love"
    PERFORMER "The Association"
    INDEX 01 00:00:00
FILE "09 - Goodbye Forever.wav" WAVE
  TRACK 09 AUDIO
    TITLE "Goodbye Forever"
    PERFORMER "The Association"
    INDEX 01 00:00:00
FILE "10 - Just About The Same.wav" WAVE
  TRACK 10 AUDIO
    TITLE "Just About The Same"
    PERFORMER "The Association"
    INDEX 01 00:00:00
FILE "11 - Babe I'm Gonna Leave You.wav" WAVE
  TRACK 11 AUDIO
    TITLE "Babe I'm Gonna Leave You"
    PERFORMER "The Association"
    INDEX 01 00:00:00
  TRACK 12 AUDIO
    TITLE "Seven Man Band"
    PERFORMER "The Association"
    INDEX 00 03:17:33
FILE "12 - Seven Man Band.wav" WAVE
    INDEX 01 00:00:00
  TRACK 13 AUDIO
    TITLE "The Time Is Today"
    PERFORMER "The Association"
    INDEX 00 02:20:27
FILE "13 - The Time Is Today.wav" WAVE
    INDEX 01 00:00:00
FILE "14 - Dubuque Blues.wav" WAVE
  TRACK 14 AUDIO
    TITLE "Dubuque Blues"
    PERFORMER "The Association"
    INDEX 01 00:00:00
FILE "15 - Blistered.wav" WAVE
  TRACK 15 AUDIO
    TITLE "Blistered"
    PERFORMER "The Association"
    INDEX 01 00:00:00
FILE "16 - What Were The Words.wav" WAVE
  TRACK 16 AUDIO
    TITLE "What Were The Words"
    PERFORMER "The Association"
    INDEX 01 00:00:00
FILE "17 - Remember.wav" WAVE
  TRACK 17 AUDIO
    TITLE "Remember"
    PERFORMER "The Association"
    INDEX 01 00:00:00
  TRACK 18 AUDIO
    TITLE "Are You Ready"
    PERFORMER "The Association"
    INDEX 00 02:40:65
FILE "18 - Are You Ready.wav" WAVE
    INDEX 01 00:00:00
FILE "19 - Cherish.wav" WAVE
  TRACK 19 AUDIO
    TITLE "Cherish"
    PERFORMER "The Association"
    INDEX 01 00:00:00
FILE "20 - Requiem For The Masses.wav" WAVE
  TRACK 20 AUDIO
    TITLE "Requiem For The Masses"
    PERFORMER "The Association"
    INDEX 01 00:00:00
FILE "21 - Windy.wav" WAVE
  TRACK 21 AUDIO
    TITLE "Windy"
    PERFORMER "The Association"
    INDEX 01 00:00:00
FILE "22 - Enter The Young.wav" WAVE
  TRACK 22 AUDIO
    TITLE "Enter The Young"
    PERFORMER "The Association"
    INDEX 01 00:00:00
Код:
-----------------------
DON'T MODIFY THIS FILE
-----------------------
PERFORMER: auCDtect Task Manager, ver. 1.5.1RC4 build 1.5.1.5
Copyright (c) 2008-2010 y-soft. All rights reserved
[url=http://y-soft.org]http://y-soft.org[/url]
ANALYZER: auCDtect: CD records authenticity detector, version 0.8.2
Copyright (c) 2004 Oleg Berngardt. All rights reserved.
Copyright (c) 2004 Alexander Djourik. All rights reserved.
FILE: 22 - Enter The Young.flac
  Size: 23733389 Hash: 17DE4890A183AC21A0E445A78A94837A Accuracy: -m0
  Conclusion: CDDA 100%
  Signature: 631910CE7B3BE4B6594A7CCE0D076593152C38FF
FILE: 21 - Windy.flac
  Size: 27865362 Hash: C50947AF261DCBCE24F06BB56EB1D02D Accuracy: -m0
  Conclusion: CDDA 100%
  Signature: 2FB7902A962A30852160BC630DBC215BA9DD67C3
FILE: 20 - Requiem For The Masses.flac
  Size: 29223985 Hash: 944277127F6CE067A47649CAA8E75278 Accuracy: -m0
  Conclusion: CDDA 100%
  Signature: 574C62F650F03296DB2CA2570D2F01980FA31B1C
FILE: 19 - Cherish.flac
  Size: 35533635 Hash: 1D953EE64282FFA2D935065C509707FC Accuracy: -m0
  Conclusion: CDDA 99%
  Signature: E503E81D8FA8B6B3D1352B6DE9392D61235B126E
FILE: 18 - Are You Ready.flac
  Size: 20761947 Hash: 8C9F5BB91912E60EB496B0CDE1D05DE1 Accuracy: -m0
  Conclusion: CDDA 100%
  Signature: 99C61B3413662D18CA0FC1444F912903A40EB9B2
FILE: 17 - Remember.flac
  Size: 19927810 Hash: 02BF2C13B6433C621FA5FC2CFCC4BC8B Accuracy: -m0
  Conclusion: CDDA 99%
  Signature: D4A5D8BE7680867D9BC09A3E581E0D65C2396420
FILE: 16 - What Were The Words.flac
  Size: 16934370 Hash: 3CDCE30572703839A88C23C39910A30E Accuracy: -m0
  Conclusion: CDDA 100%
  Signature: 80B86A0EF576E5E38C37C7B48DDC7BEB3F2DE414
FILE: 15 - Blistered.flac
  Size: 20940687 Hash: 63EE1AAE74A2BBF1953153CB7DFC3965 Accuracy: -m0
  Conclusion: CDDA 100%
  Signature: 29988A4C8B7C6CC47CA18103DA793B4D05BBCBEF
FILE: 14 - Dubuque Blues.flac
  Size: 32911178 Hash: 1B78C0BF907D5FCF6B844AB0CAF7CEE6 Accuracy: -m0
  Conclusion: CDDA 100%
  Signature: 1E34224E91A4F0FEB95163F2202A172B94370A69
FILE: 13 - The Time Is Today.flac
  Size: 20173183 Hash: 123BAD8627214122F727732D996EB5BD Accuracy: -m0
  Conclusion: CDDA 100%
  Signature: C64476A4AB727735CF25ACDA56F0E21CFDF073E8
FILE: 12 - Seven Man Band.flac
  Size: 18098161 Hash: 4FBF670B84441DF8C420ED9F3E89BCD7 Accuracy: -m0
  Conclusion: CDDA 100%
  Signature: 9F0A8E65E7864FAE3D2E8FD7063FBFFD503DCECD
FILE: 11 - Babe I'm Gonna Leave You.flac
  Size: 25740962 Hash: EE51059F0F46F7AAABF1CD9A92AA9BF0 Accuracy: -m0
  Conclusion: CDDA 100%
  Signature: EAE0C0FD7D69CFCE4E1AE0BD4987D4DCBB742FE6
FILE: 10 - Just About The Same.flac
  Size: 19605819 Hash: C4AC17BA601AE489DE20C43DF29EF18D Accuracy: -m0
  Conclusion: CDDA 100%
  Signature: 659D233529FDBDA63E499D44F591C40C8C24F8A5
FILE: 09 - Goodbye Forever.flac
  Size: 21323593 Hash: 9D1B6A35DA08271676D9D1EE3CF7381B Accuracy: -m0
  Conclusion: CDDA 100%
  Signature: 653FC0360A4FF8F59D7B64C699CCB7EFD9D2F2B1
FILE: 08 - Never My Love.flac
  Size: 21552644 Hash: 1B81B1048073E16BEDD9AD89963CC1F5 Accuracy: -m0
  Conclusion: CDDA 100%
  Signature: B88BFD67758FEFD5D739832F514CDEE41679F93A
FILE: 07 - Wasn't It A Bit Like Now.flac
  Size: 33244151 Hash: 56FA2F3792AA5FC9B99728031CDD0F46 Accuracy: -m0
  Conclusion: CDDA 100%
  Signature: 1A5EDFD6C3BB16533BE1C6A40EC7DFD3C6B4339B
FILE: 06 - Let's Get Together.flac
  Size: 22288932 Hash: E6AC3B4C2F2A7297493760361A6D46C8 Accuracy: -m0
  Conclusion: CDDA 100%
  Signature: 1497C031AE945D8AD8771103BE4056600D2A86B6
FILE: 05 - Goodbye Columbus.flac
  Size: 18424492 Hash: 26794DAFD2BDA2E4373267E82ED316D8 Accuracy: -m0
  Conclusion: CDDA 100%
  Signature: 0D459B28F5DD47B632F459323C8EA6D07D1316D2
FILE: 04 - I'll Be Your Man.flac
  Size: 21825861 Hash: 81987BB6697CEEC60AF8A3D9FB39E38B Accuracy: -m0
  Conclusion: CDDA 100%
  Signature: 8A714CDABD12A52DEFB908776E4E9952DD77E07F
FILE: 03 - Along Comes Mary.flac
  Size: 34857290 Hash: 2EDEAA8A0D3C874E5245D6B6F30C5410 Accuracy: -m0
  Conclusion: CDDA 100%
  Signature: 865B03810E8256497B034CCF139847CED948510A
FILE: 02 - One Too Many Mornings.flac
  Size: 20084100 Hash: 55AD93858FB79F927460C54F1DFD6975 Accuracy: -m0
  Conclusion: CDDA 100%
  Signature: 68049DE40FC43D827518DBE733F305F88305ABBC
FILE: 01 - Dream Girl.flac
  Size: 8818618 Hash: 5038636020FCF1CA972630F2EE220E87 Accuracy: -m0
  Conclusion: CDDA 100%
  Signature: A8AD6ADD505EDF1B09F937F24330FFA9E5702374
Код:
[CUETools log; Date: 29.12.2015 17:27:40; Version: 2.1.4]
[CTDB TOCID: 33jodx06a0jzX38TI3y3fb5cqag-] found.
Track | CTDB Status
  1   | (4/4) Accurately ripped
  2   | (4/4) Accurately ripped
  3   | (4/4) Accurately ripped
  4   | (4/4) Accurately ripped
  5   | (4/4) Accurately ripped
  6   | (4/4) Accurately ripped
  7   | (4/4) Accurately ripped
  8   | (4/4) Accurately ripped
  9   | (4/4) Accurately ripped
 10   | (4/4) Accurately ripped
 11   | (4/4) Accurately ripped
 12   | (4/4) Accurately ripped
 13   | (4/4) Accurately ripped
 14   | (4/4) Accurately ripped
 15   | (4/4) Accurately ripped
 16   | (4/4) Accurately ripped
 17   | (4/4) Accurately ripped
 18   | (4/4) Accurately ripped
 19   | (4/4) Accurately ripped
 20   | (4/4) Accurately ripped
 21   | (4/4) Accurately ripped
 22   | (4/4) Accurately ripped
[AccurateRip ID: 0038fd2c-03969226-46117616] found.
Track   [  CRC   |   V2   ] Status
 01     [cb9af1d5|6bb3995a] (2+5/7) Accurately ripped
 02     [4bbaa1ea|912adeea] (2+5/7) Accurately ripped
 03     [b29c7417|bfaee345] (2+5/7) Accurately ripped
 04     [769c4afa|ef8beff6] (2+5/7) Accurately ripped
 05     [b2cb1e8f|57c4a3a1] (2+5/7) Accurately ripped
 06     [e1ed6824|591914e6] (2+5/7) Accurately ripped
 07     [073d1fd1|834c572f] (2+5/7) Accurately ripped
 08     [04467ed1|4ef630c2] (2+5/7) Accurately ripped
 09     [4a12d7af|67ca5d5c] (2+5/7) Accurately ripped
 10     [988da847|b1bbe4fa] (2+5/7) Accurately ripped
 11     [d67b8370|ab9a4070] (2+5/7) Accurately ripped
 12     [2ed00f67|5801559e] (2+5/7) Accurately ripped
 13     [a7ec8350|dce6c20f] (2+5/7) Accurately ripped
 14     [4be1961f|df719814] (2+5/7) Accurately ripped
 15     [a5d0b013|72e060a0] (2+5/7) Accurately ripped
 16     [ec8ac0e5|b6bd78ac] (2+5/7) Accurately ripped
 17     [fa874048|5c93cbe4] (2+5/7) Accurately ripped
 18     [6cf3b86a|72e98cb7] (2+5/7) Accurately ripped
 19     [70f3f952|24a7b6f6] (2+5/7) Accurately ripped
 20     [8e830225|44b8850c] (2+5/7) Accurately ripped
 21     [18b98c3d|a58017d2] (2+5/7) Accurately ripped
 22     [f52bd74b|d68c87a0] (2+5/7) Accurately ripped
Track Peak [ CRC32  ] [W/O NULL] [  LOG   ]
 --   97,2 [9566BA0B] [529E2D7F]
 01   80,5 [B1227863] [AAC8AB5C]   CRC32
 02   97,2 [7833530A] [4D811711]   CRC32
 03   97,2 [2BC64727] [871280EA]   CRC32
 04   97,2 [65C029CD] [CDC724BA]   CRC32
 05   97,2 [D65EA203] [F42C872B]   CRC32
 06   97,2 [9F8068AA] [0037F833]   CRC32
 07   97,2 [7EEF1A45] [DE028879]   CRC32
 08   97,2 [3D90F95F] [FD4DE4C8]   CRC32
 09   97,2 [6F66F916] [79D357EA]   CRC32
 10   97,2 [2B02215B] [DEC4ED70]   CRC32
 11   97,2 [02E21515] [EA001601]   CRC32
 12   97,2 [CBD2B72D] [EA94863D]   CRC32
 13   97,2 [F9E0A5CC] [4D186FAF]   CRC32
 14   97,2 [E060141F] [357B1C12]   CRC32
 15   97,2 [23CA73CD] [7706096E]   CRC32
 16   97,2 [C11120B1] [4E3B2C10]   CRC32
 17   75,0 [8747ABF7] [B54046A2]   CRC32
 18   97,2 [74B60849] [C0F89EC9]   CRC32
 19   97,2 [EB6AF44D] [C886E0EE]   CRC32
 20   97,2 [888410AB] [06483ECB]   CRC32
 21   97,2 [8FFD91A6] [12AFDD48]   CRC32
 22   97,2 [3CD0C442] [F1FC665E]   CRC32
Код:
foobar2000 1.3.9 / Замер динамического диапазона (DR) 1.1.1
Дата отчёта:  2015-12-30 12:54:41
--------------------------------------------------------------------------------
Анализ:   The Association / Live
--------------------------------------------------------------------------------
DR         Пики         RMS           Продолжительность трека
--------------------------------------------------------------------------------
DR13      -1.88 дБ   -20.19 дБ      1:36 01-Dream Girl
DR12      -0.24 дБ   -13.19 дБ      2:52 02-One Too Many Mornings
DR12      -0.24 дБ   -15.31 дБ      5:23 03-Along Comes Mary
DR11      -0.24 дБ   -14.61 дБ      3:20 04-I'll Be Your Man
DR11      -0.24 дБ   -13.09 дБ      2:29 05-Goodbye Columbus
DR10      -0.24 дБ   -13.19 дБ      3:22 06-Let's Get Together
DR10      -0.24 дБ   -13.53 дБ      4:35 07-Wasn't It A Bit Like Now
DR11      -0.24 дБ   -12.78 дБ      3:12 08-Never My Love
DR8       -0.24 дБ   -10.19 дБ      2:49 09-Goodbye Forever
DR10      -0.24 дБ   -13.00 дБ      2:51 10-Just About The Same
DR9       -0.24 дБ   -11.69 дБ      3:43 11-Babe I'm Gonna Leave You
DR9       -0.24 дБ   -11.46 дБ      2:25 12-Seven Man Band
DR10      -0.24 дБ   -13.26 дБ      3:02 13-The Time Is Today
DR10      -0.24 дБ   -12.66 дБ      4:42 14-Dubuque Blues
DR10      -0.24 дБ   -13.15 дБ      2:58 15-Blistered
DR11      -0.24 дБ   -12.54 дБ      2:28 16-What Were The Words
DR13      -2.49 дБ   -19.47 дБ      3:19 17-Remember
DR10      -0.24 дБ   -11.77 дБ      2:52 18-Are You Ready
DR11      -0.24 дБ   -14.24 дБ      5:15 19-Cherish
DR12      -0.24 дБ   -15.29 дБ      4:28 20-Requiem For The Masses
DR10      -0.24 дБ   -12.37 дБ      3:41 21-Windy
DR10      -0.24 дБ   -12.07 дБ      3:09 22-Enter The Young
--------------------------------------------------------------------------------
Количество треков: 22
Реальные значения DR: DR11
Частота:   44100 Гц
Каналов:   2
Разрядность:   16
Битрейт:   1005 кбит/с
Кодек:   FLAC
================================================================================
Доп. информация
Gary "Jules" Alexander - Guitar, Vocals
Russ Giguere - Guitar, Vocals
Jim Yester - Guitar, Keyboards, Saxophone, Vocals
Larry Ramos - Guitar, Harmonica, Saxophone, Vocals
Brian Cole - Bass, Clarinet, Vocals
Ted Bluechel - Drums, Vocals
Terry Kirkman - Drums, Vocals
This 75-minute album, originally a double-LP (recorded live at the University of Utah in Salt Lake City on April 3, 1970) is a valiant attempt at capturing the Association's concert sound on record. Unfortunately, it fails for several reasons, beginning with the fact that the instrumental mix is very bass-heavy -- even with adjustments to compensate, this overwhelms much of the rest of the band on several key numbers. Additionally, the group's singing, though more than adequate, lacks the presence needed to give their harmonies the necessary radiance to make the music fully attractive, coming off instead as anemic. The real problem is that cutting a live album was a thankless task for this group -- so much of their sound was dependent on a studio-driven perfection -- that live recording was an exercise in futility (let's put it this way -- the Beach Boys pulled this off more than once, but they had a resident genius around part of the time doing their arrangements; the Association: no genius in the ranks). "Goodbye Columbus" is a case in point, it's a breezy, cheerful number that gets a spirited performance, but it still sounds thin and emaciated because the single is the way that song is supposed to sound, period. By contrast, their rendition of "Get Together," complete with lyrical and soaring harmonies, is a masterpiece of a kind -- or it would be if it were a prelude to a studio recording where the balances could be refined and perfected. As it is, the band often sound clunky on their instruments, even as they sing their hearts out. "Seven Man Band" features some ferocious fuzz guitar that gets buried in mix. Some songs do work -- "Cherish" is a bit emaciated but ultimately makes for interesting listening, while "Requiem for the Masses" and "Enter the Young" come off well on any terms. It's hardly worth the inflated price of the Japanese imported CD, except for the most hardcore completists.
http://www.allmusic.com/album/the-association-live-mw0000321525
https://en.wikipedia.org/wiki/The_Association_Live
https://en.wikipedia.org/wiki/The_Association
http://www.theassociationwebsite.com
Правила, инструкции, FAQ!!!
Торрент  Добавлен [26 мар 2019, 21:06] Скачать торрент Магнет ссылка
Скачать торрент
[ Размер 21.81 КБ / Просмотров 3 ]

Статус
Проверен 
 
Размер  503.57 МБ
Приватный: Нет (DHT включён)
.torrent скачан  0
 


     Отправить личное сообщение
   
Страница 1 из 1
Показать сообщения за:  Поле сортировки  
Начать новую тему Ответить на тему


Сейчас этот форум просматривают: нет зарегистрированных пользователей и гости: 0


Вы не можете начинать темы
Вы не можете отвечать на сообщения
Вы не можете редактировать свои сообщения
Вы не можете удалять свои сообщения
Вы не можете добавлять вложения

Перейти:  
cron