Начать новую тему Ответить на тему
Статистика раздачи
Размер: 433.37 МБ | Добавлен: 26 мар 2019, 19:50 | Скачали: 0
Сидеров: 0  [0 байт/сек]    Личеров: 0  [0 байт/сек]
Пред. тема | След. тема 

Автор
Сообщение

СообщениеДобавлено: 26 мар 2019, 19:50 

Ответить с цитатой 

The Alarm / Standards
Жанр: Pop-Rock
Носитель: CD
Страна-производитель диска: Deutschland
Год издания: 1990
Издатель (лейбл): Electrola
Номер по каталогу: 7 13056 2
Страна: Wales
Аудиокодек: APE (*.ape)
Тип рипа: image+.cue
Битрейт аудио: lossless
Продолжительность: 64:29
Источник (релизер): Cвой рип
Наличие сканов в содержимом раздачи: да
01. The Road
02. Unsafe Building
03. The Stand
04. Sixty Eight Guns
05. Where Were You Hiding When the Storm Broke?
06. Absolute Reality
07. Strength
08. Spirit of '76
09. Rain in the Summertime
10. Rescue Me
11. Sold Me Down the River
12. Devolution Workin' Man Blues
13. Happy Christmas (War Is Over)
14. Marching On
15. Blaze of Glory
Код:
Exact Audio Copy V1.0 beta 3 from 29. August 2011
EAC extraction logfile from 25. January 2014, 19:45
The Alarm / Standards
Used drive  : ATAPI   iHAS124   B   Adapter: 1  ID: 1
Read mode               : Secure
Utilize accurate stream : Yes
Defeat audio cache      : Yes
Make use of C2 pointers : No
Read offset correction                      : 6
Overread into Lead-In and Lead-Out          : No
Fill up missing offset samples with silence : Yes
Delete leading and trailing silent blocks   : No
Null samples used in CRC calculations       : Yes
Used interface                              : Native Win32 interface for Win NT & 2000
Used output format              : Monkey's Audio Lossless Encoder
Selected bitrate                : Extra High Lossless Compression
Quality                         : High
Add ID3 tag                     : No
Command line compressor         : C:\Program Files\Monkey's Audio\MAC.exe
TOC of the extracted CD
     Track |   Start  |  Length  | Start sector | End sector
    ---------------------------------------------------------
        1  |  0:00.00 |  3:13.70 |         0    |    14544
        2  |  3:13.70 |  4:06.72 |     14545    |    33066
        3  |  7:20.67 |  4:43.45 |     33067    |    54336
        4  | 12:04.37 |  3:15.45 |     54337    |    69006
        5  | 15:20.07 |  2:57.00 |     69007    |    82281
        6  | 18:17.07 |  3:26.25 |     82282    |    97756
        7  | 21:43.32 |  5:35.18 |     97757    |   122899
        8  | 27:18.50 |  7:06.35 |    122900    |   154884
        9  | 34:25.10 |  5:11.40 |    154885    |   178249
       10  | 39:36.50 |  3:20.25 |    178250    |   193274
       11  | 42:57.00 |  4:10.57 |    193275    |   212081
       12  | 47:07.57 |  4:11.63 |    212082    |   230969
       13  | 51:19.45 |  3:41.17 |    230970    |   247561
       14  | 55:00.62 |  3:32.20 |    247562    |   263481
       15  | 58:33.07 |  6:04.68 |    263482    |   290849
Range status and errors
Selected range
     Filename D:\I\The Alarm - Standards (1990)\The Alarm - Standards.wav
     Peak level 100.0 %
     Extraction speed 9.6 X
     Range quality 100.0 %
     Test CRC E42A79B7
     Copy CRC E42A79B7
     Copy OK
No errors occurred
End of status report
==== Log checksum 7A183E45B267DAC7A6B7D3815963035DFAC70A630DA158F62BCC042FDDC31BCF ====
Правила, инструкции, FAQ!!!
Торрент  Добавлен [26 мар 2019, 19:50] Скачать торрент Магнет ссылка
Скачать торрент
[ Размер 17.71 КБ / Просмотров 1 ]

Статус
Проверен 
 
Размер  433.37 МБ
Приватный: Нет (DHT включён)
.torrent скачан  0
 


     Отправить личное сообщение
   
Страница 1 из 1
Показать сообщения за:  Поле сортировки  
Начать новую тему Ответить на тему


Сейчас этот форум просматривают: нет зарегистрированных пользователей и гости: 0


Вы не можете начинать темы
Вы не можете отвечать на сообщения
Вы не можете редактировать свои сообщения
Вы не можете удалять свои сообщения
Вы не можете добавлять вложения

Перейти:  
cron