Начать новую тему Ответить на тему
Статистика раздачи
Размер: 367.18 МБ | Добавлен: 26 мар 2019, 18:41 | Скачали: 0
Сидеров: 1  [0 байт/сек]    Личеров: 0  [0 байт/сек]
Пред. тема | След. тема 

Автор
Сообщение

СообщениеДобавлено: 26 мар 2019, 18:41 

Ответить с цитатой 

Tele / Wovon Sollen Wir Leben
Жанр: Pop-Rock
Страна-производитель диска: Германия
Год издания диска: 2004
Издатель (лейбл): Tapete Records, Universal
Номер по каталогу: 986 780-6
Аудио кодек: APE (*.ape)
Тип рипа: tracks+.cue
Битрейт аудио: lossless
Продолжительность: 52:37
Источник (релизер): AvaxHome
Наличие сканов в содержимом раздачи: да
Треклист:
01 Wenn Du Gehst 4:22
02 Wunder In Briefen 3:58
03 Es Kommt Ein Schiff 4:18
04 Falschrum 3:49
05 Wovon Sollen Wir Leben 4:38
06 Wiemir 3:34
07 Wenn Du Gehst (Part II) 1:04
08 Die Luft 5:42
09 Rot 3:34
10 Die Besseren Zeiten 4:42
11 Ende Der Besuchszeit 4:39
12 Dilemma 3:28
13 Eine Kreuzung, Vier Wege 4:33
Код:
Exact Audio Copy V0.99 prebeta 5 from 4. May 2009
EAC extraction logfile from 15. November 2010, 17:40
Tele / Wovon sollen wir leben
Used drive  : HL-DT-STDVDRAM GSA-H12L   Adapter: 0  ID: 0
Read mode               : Secure
Utilize accurate stream : Yes
Defeat audio cache      : Yes
Make use of C2 pointers : No
Read offset correction                      : 667
Overread into Lead-In and Lead-Out          : No
Fill up missing offset samples with silence : Yes
Delete leading and trailing silent blocks   : No
Null samples used in CRC calculations       : Yes
Used interface                              : Installed external ASPI interface
Gap handling                                : Appended to previous track
Used output format              : User Defined Encoder
Selected bitrate                : 1024 kBit/s
Quality                         : High
Add ID3 tag                     : No
Command line compressor         : C:\Programme\FLAC\flac.exe
Additional command line options : -6 -T "Artist=%a" -T "Title=%t" -T "Album=%g" -T "Date=%y" -T "Tracknumber=%n" -T "Genre=%m" %s -o %d
TOC of the extracted CD
     Track |   Start  |  Length  | Start sector | End sector
    ---------------------------------------------------------
        1  |  0:00.00 |  4:23.08 |         0    |    19732
        2  |  4:23.08 |  3:58.65 |     19733    |    37647
        3  |  8:21.73 |  4:20.74 |     37648    |    57221
        4  | 12:42.72 |  3:50.57 |     57222    |    74528
        5  | 16:33.54 |  4:37.66 |     74529    |    95369
        6  | 21:11.45 |  3:35.38 |     95370    |   111532
        7  | 24:47.08 |  1:04.54 |    111533    |   116386
        8  | 25:51.62 |  5:42.03 |    116387    |   142039
        9  | 31:33.65 |  3:37.36 |    142040    |   158350
       10  | 35:11.26 |  4:42.54 |    158351    |   179554
       11  | 39:54.05 |  4:39.49 |    179555    |   200528
       12  | 44:33.54 |  3:30.34 |    200529    |   216312
       13  | 48:04.13 |  4:35.11 |    216313    |   236948
Track  1
     Filename F:\=== VINYL RIPS ===\=== EAC===\01 Wenn Du gehst.wav
     Pre-gap length  0:00:02.00
     Peak level 100.0 %
     Track quality 100.0 %
     Test CRC 3FC374D1
     Copy CRC 3FC374D1
     Accurately ripped (confidence 5)  [79891980]
     Copy OK
Track  2
     Filename F:\=== VINYL RIPS ===\=== EAC===\02 Wunder in Briefen.wav
     Peak level 100.0 %
     Track quality 100.0 %
     Test CRC 27600D53
     Copy CRC 27600D53
     Accurately ripped (confidence 5)  [7DC2CCE3]
     Copy OK
Track  3
     Filename F:\=== VINYL RIPS ===\=== EAC===\03 Es kommt ein Schiff.wav
     Pre-gap length  0:00:00.68
     Peak level 100.0 %
     Track quality 99.9 %
     Test CRC ABFCD9C4
     Copy CRC ABFCD9C4
     Accurately ripped (confidence 5)  [E705063D]
     Copy OK
Track  4
     Filename F:\=== VINYL RIPS ===\=== EAC===\04 Falschrum.wav
     Pre-gap length  0:00:03.00
     Peak level 100.0 %
     Track quality 99.9 %
     Test CRC 70326180
     Copy CRC 70326180
     Accurately ripped (confidence 5)  [49FA34ED]
     Copy OK
Track  5
     Filename F:\=== VINYL RIPS ===\=== EAC===\05 Wovon sollen wir leben.wav
     Pre-gap length  0:00:01.27
     Peak level 100.0 %
     Track quality 100.0 %
     Test CRC A483C28F
     Copy CRC A483C28F
     Accurately ripped (confidence 6)  [1506ABB8]
     Copy OK
Track  6
     Filename F:\=== VINYL RIPS ===\=== EAC===\06 Wiemir.wav
     Peak level 100.0 %
     Track quality 99.9 %
     Test CRC F42B9DD9
     Copy CRC F42B9DD9
     Accurately ripped (confidence 5)  [96B5906E]
     Copy OK
Track  7
     Filename F:\=== VINYL RIPS ===\=== EAC===\07 Wenn Du gehst Part II.wav
     Pre-gap length  0:00:01.37
     Peak level 100.0 %
     Track quality 99.8 %
     Test CRC A57BEBF5
     Copy CRC A57BEBF5
     Accurately ripped (confidence 5)  [BCE2E27E]
     Copy OK
Track  8
     Filename F:\=== VINYL RIPS ===\=== EAC===\08 Die Luft.wav
     Pre-gap length  0:00:00.46
     Peak level 100.0 %
     Track quality 99.9 %
     Test CRC 745764E4
     Copy CRC 745764E4
     Accurately ripped (confidence 5)  [6304B3AE]
     Copy OK
Track  9
     Filename F:\=== VINYL RIPS ===\=== EAC===\09 Rot.wav
     Pre-gap length  0:00:00.68
     Peak level 100.0 %
     Track quality 99.9 %
     Test CRC 21D55661
     Copy CRC 21D55661
     Accurately ripped (confidence 5)  [E8BDECAC]
     Copy OK
Track 10
     Filename F:\=== VINYL RIPS ===\=== EAC===\10 Die besseren Zeiten.wav
     Pre-gap length  0:00:03.23
     Peak level 100.0 %
     Track quality 100.0 %
     Test CRC 7E64AE38
     Copy CRC 7E64AE38
     Accurately ripped (confidence 5)  [728A1870]
     Copy OK
Track 11
     Filename F:\=== VINYL RIPS ===\=== EAC===\11 Ende der Besuchszeit.wav
     Pre-gap length  0:00:00.23
     Peak level 100.0 %
     Track quality 100.0 %
     Test CRC 8624219D
     Copy CRC 8624219D
     Accurately ripped (confidence 5)  [5C812014]
     Copy OK
Track 12
     Filename F:\=== VINYL RIPS ===\=== EAC===\12 Dilemma.wav
     Pre-gap length  0:00:00.08
     Peak level 100.0 %
     Track quality 100.0 %
     Test CRC EF587EE4
     Copy CRC EF587EE4
     Accurately ripped (confidence 5)  [2046AB98]
     Copy OK
Track 13
     Filename F:\=== VINYL RIPS ===\=== EAC===\13 Eine Kreuzung, vier Wege.wav
     Pre-gap length  0:00:01.71
     Peak level 100.0 %
     Track quality 100.0 %
     Test CRC 9A64EC07
     Copy CRC 9A64EC07
     Accurately ripped (confidence 5)  [662B6FE0]
     Copy OK
All tracks accurately ripped
No errors occurred
End of status report
Код:
REM GENRE Pop
REM DATE 2004
REM DISCID CE0C570D
REM COMMENT "ExactAudioCopy v0.99pb5"
CATALOG 0602498678060
PERFORMER "Tele"
TITLE "Wovon sollen wir leben"
FILE "01 Wenn Du gehst.wav" WAVE
  TRACK 01 AUDIO
    TITLE "Wenn Du gehst"
    PERFORMER "Tele"
    ISRC DEN120405815
    INDEX 01 00:00:00
FILE "02 Wunder in Briefen.wav" WAVE
  TRACK 02 AUDIO
    TITLE "Wunder in Briefen"
    PERFORMER "Tele"
    ISRC DEN120405819
    INDEX 01 00:00:00
  TRACK 03 AUDIO
    TITLE "Es kommt ein Schiff"
    PERFORMER "Tele"
    ISRC DEN120405813
    INDEX 00 03:57:72
FILE "03 Es kommt ein Schiff.wav" WAVE
    INDEX 01 00:00:00
  TRACK 04 AUDIO
    TITLE "Falschrum"
    PERFORMER "Tele"
    ISRC DEN120405552
    INDEX 00 04:17:74
FILE "04 Falschrum.wav" WAVE
    INDEX 01 00:00:00
  TRACK 05 AUDIO
    TITLE "Wovon sollen wir leben"
    PERFORMER "Tele"
    ISRC DEN120405818
    INDEX 00 03:49:30
FILE "05 Wovon sollen wir leben.wav" WAVE
    INDEX 01 00:00:00
FILE "06 Wiemir.wav" WAVE
  TRACK 06 AUDIO
    TITLE "Wiemir"
    PERFORMER "Tele"
    ISRC DEN120405817
    INDEX 01 00:00:00
  TRACK 07 AUDIO
    TITLE "Wenn Du gehst Part II"
    PERFORMER "Tele"
    ISRC DEN120405816
    INDEX 00 03:34:01
FILE "07 Wenn Du gehst Part II.wav" WAVE
    INDEX 01 00:00:00
  TRACK 08 AUDIO
    TITLE "Die Luft"
    PERFORMER "Tele"
    ISRC DEN120405809
    INDEX 00 01:04:08
FILE "08 Die Luft.wav" WAVE
    INDEX 01 00:00:00
  TRACK 09 AUDIO
    TITLE "Rot"
    PERFORMER "Tele"
    ISRC DEN120405814
    INDEX 00 05:41:10
FILE "09 Rot.wav" WAVE
    INDEX 01 00:00:00
  TRACK 10 AUDIO
    TITLE "Die besseren Zeiten"
    PERFORMER "Tele"
    ISRC DEN120405550
    INDEX 00 03:34:13
FILE "10 Die besseren Zeiten.wav" WAVE
    INDEX 01 00:00:00
  TRACK 11 AUDIO
    TITLE "Ende der Besuchszeit"
    PERFORMER "Tele"
    ISRC DEN120405812
    INDEX 00 04:42:31
FILE "11 Ende der Besuchszeit.wav" WAVE
    INDEX 01 00:00:00
  TRACK 12 AUDIO
    TITLE "Dilemma"
    PERFORMER "Tele"
    ISRC DEN120405810
    INDEX 00 04:39:41
FILE "12 Dilemma.wav" WAVE
    INDEX 01 00:00:00
  TRACK 13 AUDIO
    TITLE "Eine Kreuzung, vier Wege"
    PERFORMER "Tele"
    ISRC DEN120405811
    INDEX 00 03:28:38
FILE "13 Eine Kreuzung, vier Wege.wav" WAVE
    INDEX 01 00:00:00
Правила, инструкции, FAQ!!!
Торрент  Добавлен [26 мар 2019, 18:41] Скачать торрент Магнет ссылка
Скачать торрент
[ Размер 16 КБ / Просмотров 5 ]

Статус
Проверен 
 
Размер  367.18 МБ
Приватный: Нет (DHT включён)
.torrent скачан  0
 


     Отправить личное сообщение
   
Страница 1 из 1
Показать сообщения за:  Поле сортировки  
Начать новую тему Ответить на тему


Сейчас этот форум просматривают: нет зарегистрированных пользователей и гости: 0


Вы не можете начинать темы
Вы не можете отвечать на сообщения
Вы не можете редактировать свои сообщения
Вы не можете удалять свои сообщения
Вы не можете добавлять вложения

Перейти:  
cron