Начать новую тему Ответить на тему
Статистика раздачи
Размер: 316.28 МБ | Добавлен: 26 мар 2019, 19:42 | Скачали: 0
Сидеров: 0  [0 байт/сек]    Личеров: 0  [0 байт/сек]
Пред. тема | След. тема 

Автор
Сообщение

СообщениеДобавлено: 26 мар 2019, 19:42 

Ответить с цитатой 

Teddy Geiger / Underage Thinking
Жанр: Pop-Rock
Носитель: CD
Страна-производитель диска (релиза): Canada
Год издания: 2006
Издатель (лейбл): Sony BMG Music
Номер по каталогу: 82796949642
Аудиокодек: FLAC (*.flac)
Тип рипа: tracks+.cue
Битрейт аудио: lossless
Продолжительность: 0:43:58.
Источник (релизер): clustert
Наличие сканов в содержимом раздачи: да
Треклист:
01. These Walls [0:03:39.05]
02. For You I Will (Confidence) [0:03:49.40]
03. Night Air [0:03:43.70]
04. Thinking Underage [0:04:12.27]
05. Look Where We Are Now [0:03:43.53]
06. Air Dry [0:03:12.20]
07. Seven Days Without You [0:03:35.22]
08. Try Too Hard [0:03:19.30]
09. A Million Years [0:03:20.26]
10. Possibilities [0:03:23.59]
11. Gentleman [0:04:06.28]
12. Love Is A Marathon [0:03:52.08]
Код:
Exact Audio Copy V1.0 beta 3 from 29. August 2011
Отчёт EAC об извлечении, выполненном 7. января 2016, 0:54
Teddy Geiger / Underage Thinking
Дисковод: ASUS    DRW-1814BLT   Adapter: 4  ID: 0
Режим чтения                 : Достоверность
Использование точного потока : Да
Отключение кэша аудио        : Да
Использование указателей C2  : Нет
Коррекция смещения при чтении                     : 6
Способность читать области Lead-in и Lead-out     : Нет
Заполнение пропущенных сэмплов тишиной            : Да
Удаление блоков с тишиной в начале и конце        : Нет
При вычислениях CRC использовались нулевые сэмплы : Да
Интерфейс                                         : Встроенный Win32-интерфейс для Win NT/2000
Обработка зазоров                                 : Добавлено к предыдущему треку
Выходной формат          : Пользовательский кодировщик
Выбранный битрейт        : 128 kBit/s
Качество                 : Высокий
Добавление ID3-тега      : Нет
Утилита сжатия           : C:\Program Files\Exact Audio Copy\Flac\flac.exe
Дополнительные параметры :  -V -8 -T "Genre=%genre%" -T "Artist=%artist%" -T "Title=%title%" -T "Album=%albumtitle%" -T "Date=%year%" -T "Tracknumber=%tracknr%" -T "Comment=EAC1.0b2 FLAC -8" %source%
TOC извлечённого CD
     Трек |   Старт  | Длительность | Начальный сектор | Конечный сектор
    ---------------------------------------------------------------------
       1  |  0:00.00 |    3:39.05   |           0      |      16429
       2  |  3:39.05 |    3:49.40   |       16430      |      33644
       3  |  7:28.45 |    3:43.70   |       33645      |      50439
       4  | 11:12.40 |    4:12.27   |       50440      |      69366
       5  | 15:24.67 |    3:43.53   |       69367      |      86144
       6  | 19:08.45 |    3:12.20   |       86145      |     100564
       7  | 22:20.65 |    3:35.22   |      100565      |     116711
       8  | 25:56.12 |    3:19.30   |      116712      |     131666
       9  | 29:15.42 |    3:20.26   |      131667      |     146692
      10  | 32:35.68 |    3:23.59   |      146693      |     161976
      11  | 35:59.52 |    4:06.28   |      161977      |     180454
      12  | 40:06.05 |    3:52.08   |      180455      |     197862
Трек  1
     Имя файла R:\Раздача 57\Teddy Geiger - 2006 - Underage Thinking\01 These Walls.wav
     Длина предзазора  0:00:02.00
     Пиковый уровень 100.0 %
     Скорость извлечения 4.9 X
     Качество трека 100.0 %
     CRC теста 7927EDDB
     CRC копии 7927EDDB
     Точное извлечение (достоверность 5)  [9C20951A]  (AR v1)
     Копирование... OK
Трек  2
     Имя файла R:\Раздача 57\Teddy Geiger - 2006 - Underage Thinking\02 For You I Will (Confidence).wav
     Пиковый уровень 100.0 %
     Скорость извлечения 5.5 X
     Качество трека 100.0 %
     CRC теста 2F5BA115
     CRC копии 2F5BA115
     Точное извлечение (достоверность 5)  [50152DBC]  (AR v1)
     Копирование... OK
Трек  3
     Имя файла R:\Раздача 57\Teddy Geiger - 2006 - Underage Thinking\03 Night Air.wav
     Длина предзазора  0:00:00.49
     Пиковый уровень 100.0 %
     Скорость извлечения 5.9 X
     Качество трека 100.0 %
     CRC теста 72706C09
     CRC копии 72706C09
     Точное извлечение (достоверность 5)  [D90D175E]  (AR v1)
     Копирование... OK
Трек  4
     Имя файла R:\Раздача 57\Teddy Geiger - 2006 - Underage Thinking\04 Thinking Underage.wav
     Длина предзазора  0:00:00.64
     Пиковый уровень 99.2 %
     Скорость извлечения 6.5 X
     Качество трека 100.0 %
     CRC теста 0E431112
     CRC копии 0E431112
     Точное извлечение (достоверность 5)  [E674D8E5]  (AR v1)
     Копирование... OK
Трек  5
     Имя файла R:\Раздача 57\Teddy Geiger - 2006 - Underage Thinking\05 Look Where We Are Now.wav
     Длина предзазора  0:00:00.49
     Пиковый уровень 100.0 %
     Скорость извлечения 6.8 X
     Качество трека 100.0 %
     CRC теста 53F0B972
     CRC копии 53F0B972
     Точное извлечение (достоверность 5)  [8DB1FEBB]  (AR v1)
     Копирование... OK
Трек  6
     Имя файла R:\Раздача 57\Teddy Geiger - 2006 - Underage Thinking\06 Air Dry.wav
     Пиковый уровень 100.0 %
     Скорость извлечения 6.9 X
     Качество трека 100.0 %
     CRC теста 6D09B219
     CRC копии 6D09B219
     Точное извлечение (достоверность 5)  [F783CC48]  (AR v1)
     Копирование... OK
Трек  7
     Имя файла R:\Раздача 57\Teddy Geiger - 2006 - Underage Thinking\07 Seven Days Without You.wav
     Длина предзазора  0:00:01.04
     Пиковый уровень 99.9 %
     Скорость извлечения 7.3 X
     Качество трека 100.0 %
     CRC теста 040FF4C0
     CRC копии 040FF4C0
     Точное извлечение (достоверность 5)  [2F1FBFED]  (AR v1)
     Копирование... OK
Трек  8
     Имя файла R:\Раздача 57\Teddy Geiger - 2006 - Underage Thinking\08 Try Too Hard.wav
     Длина предзазора  0:00:01.07
     Пиковый уровень 93.4 %
     Скорость извлечения 7.6 X
     Качество трека 100.0 %
     CRC теста 1D1F0200
     CRC копии 1D1F0200
     Точное извлечение (достоверность 5)  [B819C7AB]  (AR v1)
     Копирование... OK
Трек  9
     Имя файла R:\Раздача 57\Teddy Geiger - 2006 - Underage Thinking\09 A Million Years.wav
     Длина предзазора  0:00:01.34
     Пиковый уровень 100.0 %
     Скорость извлечения 7.8 X
     Качество трека 100.0 %
     CRC теста 0FB83A91
     CRC копии 0FB83A91
     Точное извлечение (достоверность 5)  [B9341C92]  (AR v1)
     Копирование... OK
Трек 10
     Имя файла R:\Раздача 57\Teddy Geiger - 2006 - Underage Thinking\10 Possibilities.wav
     Длина предзазора  0:00:00.73
     Пиковый уровень 100.0 %
     Скорость извлечения 8.1 X
     Качество трека 100.0 %
     CRC теста B63C7472
     CRC копии B63C7472
     Точное извлечение (достоверность 5)  [4A33D829]  (AR v1)
     Копирование... OK
Трек 11
     Имя файла R:\Раздача 57\Teddy Geiger - 2006 - Underage Thinking\11 Gentleman.wav
     Длина предзазора  0:00:01.04
     Пиковый уровень 98.5 %
     Скорость извлечения 8.6 X
     Качество трека 100.0 %
     CRC теста A416C096
     CRC копии A416C096
     Точное извлечение (достоверность 5)  [0E56FFED]  (AR v1)
     Копирование... OK
Трек 12
     Имя файла R:\Раздача 57\Teddy Geiger - 2006 - Underage Thinking\12 Love Is A Marathon.wav
     Длина предзазора  0:00:01.23
     Пиковый уровень 86.3 %
     Скорость извлечения 6.6 X
     Качество трека 99.9 %
     CRC теста EAD8310F
     CRC копии EAD8310F
     Точное извлечение (достоверность 5)  [13942954]  (AR v1)
     Копирование... OK
Все треки извлечены точно
Ошибок не произошло
Конец отчёта
==== Контрольная сумма отчёта 38EBAC269B0B6130572DB245EEF224A522D39543A5DC02D8EC439EB789D60CFC ====
Код:
REM GENRE Pop
REM DATE 2006
REM DISCID 980A4E0C
REM COMMENT "ExactAudioCopy v1.0b3"
PERFORMER "Teddy Geiger"
TITLE "Underage Thinking"
FILE "01 These Walls.wav" WAVE
  TRACK 01 AUDIO
    TITLE "These Walls"
    PERFORMER "Teddy Geiger"
    ISRC H2KM10507364
    INDEX 01 00:00:00
FILE "02 For You I Will (Confidence).wav" WAVE
  TRACK 02 AUDIO
    TITLE "For You I Will (Confidence)"
    PERFORMER "Teddy Geiger"
    ISRC H2KM10504265
    INDEX 01 00:00:00
  TRACK 03 AUDIO
    TITLE "Night Air"
    PERFORMER "Teddy Geiger"
    ISRC H2KM10505863
    INDEX 00 03:48:66
FILE "03 Night Air.wav" WAVE
    INDEX 01 00:00:00
  TRACK 04 AUDIO
    TITLE "Thinking Underage"
    PERFORMER "Teddy Geiger"
    ISRC H2KM10505864
    INDEX 00 03:43:06
FILE "04 Thinking Underage.wav" WAVE
    INDEX 01 00:00:00
  TRACK 05 AUDIO
    TITLE "Look Where We Are Now"
    PERFORMER "Teddy Geiger"
    ISRC H2KM10505943
    INDEX 00 04:11:53
FILE "05 Look Where We Are Now.wav" WAVE
    INDEX 01 00:00:00
FILE "06 Air Dry.wav" WAVE
  TRACK 06 AUDIO
    TITLE "Air Dry"
    PERFORMER "Teddy Geiger"
    ISRC H2KM10505865
    INDEX 01 00:00:00
  TRACK 07 AUDIO
    TITLE "Seven Days Without You"
    PERFORMER "Teddy Geiger"
    ISRC H2KM10505866
    INDEX 00 03:11:16
FILE "07 Seven Days Without You.wav" WAVE
    INDEX 01 00:00:00
  TRACK 08 AUDIO
    TITLE "Try Too Hard"
    PERFORMER "Teddy Geiger"
    ISRC H2KM10501662
    INDEX 00 03:34:15
FILE "08 Try Too Hard.wav" WAVE
    INDEX 01 00:00:00
  TRACK 09 AUDIO
    TITLE "A Million Years"
    PERFORMER "Teddy Geiger"
    ISRC H2KM10505944
    INDEX 00 03:17:71
FILE "09 A Million Years.wav" WAVE
    INDEX 01 00:00:00
  TRACK 10 AUDIO
    TITLE "Possibilities"
    PERFORMER "Teddy Geiger"
    ISRC H2KM10505867
    INDEX 00 03:19:28
FILE "10 Possibilities.wav" WAVE
    INDEX 01 00:00:00
  TRACK 11 AUDIO
    TITLE "Gentleman"
    PERFORMER "Teddy Geiger"
    ISRC H2KM10505869
    INDEX 00 03:22:55
FILE "11 Gentleman.wav" WAVE
    INDEX 01 00:00:00
  TRACK 12 AUDIO
    TITLE "Love Is A Marathon"
    PERFORMER "Teddy Geiger"
    ISRC H2KM10501666
    INDEX 00 04:05:05
FILE "12 Love Is A Marathon.wav" WAVE
    INDEX 01 00:00:00
Правила, инструкции, FAQ!!!
Торрент  Добавлен [26 мар 2019, 19:42] Скачать торрент Магнет ссылка
Скачать торрент
[ Размер 14.14 КБ / Просмотров 0 ]

Статус
Проверен 
 
Размер  316.28 МБ
Приватный: Нет (DHT включён)
.torrent скачан  0
 


     Отправить личное сообщение
   
Страница 1 из 1
Показать сообщения за:  Поле сортировки  
Начать новую тему Ответить на тему


Сейчас этот форум просматривают: нет зарегистрированных пользователей и гости: 0


Вы не можете начинать темы
Вы не можете отвечать на сообщения
Вы не можете редактировать свои сообщения
Вы не можете удалять свои сообщения
Вы не можете добавлять вложения

Перейти:  
cron