Начать новую тему Ответить на тему
Статистика раздачи
Размер: 386.98 МБ | Добавлен: 26 мар 2019, 19:14 | Скачали: 0
Сидеров: 0  [0 байт/сек]    Личеров: 0  [0 байт/сек]
Пред. тема | След. тема 

Автор
Сообщение

СообщениеДобавлено: 26 мар 2019, 19:14 

Ответить с цитатой 

Tariq (Hussain) / The Basement Songs
Жанр: Pop-Rock
Носитель: CD
Страна-производитель диска (релиза): Canada
Год издания: 1997
Издатель (лейбл): EMI Music Canada
Номер по каталогу: 7243 8 55282 2 4
Страна исполнителя (группы): Canada
Аудиокодек: FLAC (*.flac)
Тип рипа: tracks+.cue
Битрейт аудио: lossless
Продолжительность: 0:59:07.
Источник (релизер): clustert
Наличие сканов в содержимом раздачи: да
Треклист:
01. Chevrolet Way [0:05:42.17]
02. Wastin' your Time [0:04:33.25]
03. Crush [0:04:53.35]
04. Dear Liza [0:06:39.45]
05. Same Shit Different Day [0:05:26.45]
06. Not Just a Waiter [0:04:21.48]
07. Georgia [0:05:58.22]
08. Critic [0:03:37.63]
09. Get Lost [0:05:30.10]
10. Basement [0:04:42.12]
11. Rock and Roll Singer [0:03:38.20]
12. I don't wanna be good [0:04:03.43]
Код:
Exact Audio Copy V1.0 beta 3 from 29. August 2011
Отчёт EAC об извлечении, выполненном 11. апреля 2018, 21:33
Tariq / The Basement Songs
Дисковод: ASUS    DRW-1814BLT   Adapter: 5  ID: 0
Режим чтения                 : Достоверность
Использование точного потока : Да
Отключение кэша аудио        : Да
Использование указателей C2  : Нет
Коррекция смещения при чтении                     : 6
Способность читать области Lead-in и Lead-out     : Нет
Заполнение пропущенных сэмплов тишиной            : Да
Удаление блоков с тишиной в начале и конце        : Нет
При вычислениях CRC использовались нулевые сэмплы : Да
Интерфейс                                         : Встроенный Win32-интерфейс для Win NT/2000
Обработка зазоров                                 : Добавлено к предыдущему треку
Выходной формат          : Пользовательский кодировщик
Выбранный битрейт        : 128 kBit/s
Качество                 : Высокий
Добавление ID3-тега      : Нет
Утилита сжатия           : C:\Program Files\Exact Audio Copy\Flac\flac.exe
Дополнительные параметры :  -V -8 -T "Genre=%genre%" -T "Artist=%artist%" -T "Title=%title%" -T "Album=%albumtitle%" -T "Date=%year%" -T "Tracknumber=%tracknr%" -T "Comment=EAC1.0b2 FLAC -8" %source%
TOC извлечённого CD
     Трек |   Старт  | Длительность | Начальный сектор | Конечный сектор
    ---------------------------------------------------------------------
       1  |  0:00.00 |    5:42.17   |           0      |      25666
       2  |  5:42.17 |    4:33.25   |       25667      |      46166
       3  | 10:15.42 |    4:53.35   |       46167      |      68176
       4  | 15:09.02 |    6:39.45   |       68177      |      98146
       5  | 21:48.47 |    5:26.45   |       98147      |     122641
       6  | 27:15.17 |    4:21.48   |      122642      |     142264
       7  | 31:36.65 |    5:58.22   |      142265      |     169136
       8  | 37:35.12 |    3:37.63   |      169137      |     185474
       9  | 41:13.00 |    5:30.10   |      185475      |     210234
      10  | 46:43.10 |    4:42.12   |      210235      |     231396
      11  | 51:25.22 |    3:38.20   |      231397      |     247766
      12  | 55:03.42 |    4:03.43   |      247767      |     266034
Трек  1
     Имя файла R:\Раздача 77\Tariq - 1997 - The Basement Songs\01 Chevrolet Way .wav
     Длина предзазора  0:00:02.00
     Пиковый уровень 96.8 %
     Скорость извлечения 5.7 X
     Качество трека 100.0 %
     CRC теста BAC9CBCB
     CRC копии BAC9CBCB
     Точное извлечение (достоверность 2)  [3BD2F38B]  (AR v1)
     Копирование... OK
Трек  2
     Имя файла R:\Раздача 77\Tariq - 1997 - The Basement Songs\02 Wastin' your Time .wav
     Длина предзазора  0:00:02.50
     Пиковый уровень 96.8 %
     Скорость извлечения 6.2 X
     Качество трека 100.0 %
     CRC теста F19D697C
     CRC копии F19D697C
     Точное извлечение (достоверность 2)  [2C7DED9A]  (AR v1)
     Копирование... OK
Трек  3
     Имя файла R:\Раздача 77\Tariq - 1997 - The Basement Songs\03 Crush .wav
     Длина предзазора  0:00:01.27
     Пиковый уровень 96.8 %
     Скорость извлечения 5.2 X
     Качество трека 99.9 %
     CRC теста 7A3C7C71
     CRC копии 7A3C7C71
     Точное извлечение (достоверность 2)  [5ED06E21]  (AR v1)
     Копирование... OK
Трек  4
     Имя файла R:\Раздача 77\Tariq - 1997 - The Basement Songs\04 Dear Liza .wav
     Длина предзазора  0:00:01.22
     Пиковый уровень 96.8 %
     Скорость извлечения 6.5 X
     Качество трека 100.0 %
     CRC теста 6DAF3996
     CRC копии 6DAF3996
     Точное извлечение (достоверность 2)  [17649E1D]  (AR v1)
     Копирование... OK
Трек  5
     Имя файла R:\Раздача 77\Tariq - 1997 - The Basement Songs\05 Same Shit Different Day .wav
     Длина предзазора  0:00:00.65
     Пиковый уровень 98.8 %
     Скорость извлечения 8.1 X
     Качество трека 100.0 %
     CRC теста 82F2E776
     CRC копии 82F2E776
     Точное извлечение (достоверность 2)  [C3487D3B]  (AR v1)
     Копирование... OK
Трек  6
     Имя файла R:\Раздача 77\Tariq - 1997 - The Basement Songs\06 Not Just a Waiter .wav
     Длина предзазора  0:00:00.72
     Пиковый уровень 96.8 %
     Скорость извлечения 8.3 X
     Качество трека 100.0 %
     CRC теста 377922CA
     CRC копии 377922CA
     Точное извлечение (достоверность 2)  [4509C5A7]  (AR v1)
     Копирование... OK
Трек  7
     Имя файла R:\Раздача 77\Tariq - 1997 - The Basement Songs\07 Georgia .wav
     Пиковый уровень 96.8 %
     Скорость извлечения 9.1 X
     Качество трека 100.0 %
     CRC теста C7BBA4AC
     CRC копии C7BBA4AC
     Точное извлечение (достоверность 2)  [057C409F]  (AR v1)
     Копирование... OK
Трек  8
     Имя файла R:\Раздача 77\Tariq - 1997 - The Basement Songs\08 Critic .wav
     Пиковый уровень 96.8 %
     Скорость извлечения 8.9 X
     Качество трека 100.0 %
     CRC теста 6C14D278
     CRC копии 6C14D278
     Точное извлечение (достоверность 2)  [98B314E7]  (AR v1)
     Копирование... OK
Трек  9
     Имя файла R:\Раздача 77\Tariq - 1997 - The Basement Songs\09 Get Lost .wav
     Длина предзазора  0:00:00.33
     Пиковый уровень 96.8 %
     Скорость извлечения 9.7 X
     Качество трека 100.0 %
     CRC теста FE8E80F1
     CRC копии FE8E80F1
     Точное извлечение (достоверность 2)  [71246D93]  (AR v1)
     Копирование... OK
Трек 10
     Имя файла R:\Раздача 77\Tariq - 1997 - The Basement Songs\10 Basement .wav
     Пиковый уровень 96.8 %
     Скорость извлечения 7.5 X
     Качество трека 99.9 %
     CRC теста 6BB87991
     CRC копии 6BB87991
     Точное извлечение (достоверность 2)  [06C09C9C]  (AR v1)
     Копирование... OK
Трек 11
     Имя файла R:\Раздача 77\Tariq - 1997 - The Basement Songs\11 Rock and Roll Singer .wav
     Пиковый уровень 97.3 %
     Скорость извлечения 9.7 X
     Качество трека 100.0 %
     CRC теста 1F635607
     CRC копии 1F635607
     Точное извлечение (достоверность 2)  [B64363E1]  (AR v1)
     Копирование... OK
Трек 12
     Имя файла R:\Раздача 77\Tariq - 1997 - The Basement Songs\12 I don't wanna be good .wav
     Длина предзазора  0:00:00.30
     Пиковый уровень 96.8 %
     Скорость извлечения 9.9 X
     Качество трека 100.0 %
     CRC теста 99A36F39
     CRC копии 99A36F39
     Точное извлечение (достоверность 2)  [F5A829CD]  (AR v1)
     Копирование... OK
Все треки извлечены точно
Ошибок не произошло
Конец отчёта
==== Контрольная сумма отчёта 3EA4B19FC5F5D25CD399F8ED083729106E27D817EDC30E29DBE70052B16218BA ====
Код:
REM GENRE Folk/Rock
REM DATE 1997
REM DISCID A40DDB0C
REM COMMENT "ExactAudioCopy v1.0b3"
PERFORMER "Tariq"
TITLE "The Basement Songs"
FILE "01 Chevrolet Way .wav" WAVE
  TRACK 01 AUDIO
    TITLE "Chevrolet Way"
    PERFORMER "Tariq"
    ISRC C@lY39700062
    INDEX 01 00:00:00
  TRACK 02 AUDIO
    TITLE "Wastin' your Time"
    PERFORMER "Tariq"
    ISRC C@lY39700063
    INDEX 00 05:39:42
FILE "02 Wastin' your Time .wav" WAVE
    INDEX 01 00:00:00
  TRACK 03 AUDIO
    TITLE "Crush"
    PERFORMER "Tariq"
    ISRC C@lY39700064
    INDEX 00 04:31:73
FILE "03 Crush .wav" WAVE
    INDEX 01 00:00:00
  TRACK 04 AUDIO
    TITLE "Dear Liza"
    PERFORMER "Tariq"
    ISRC C@lY39700065
    INDEX 00 04:52:13
FILE "04 Dear Liza .wav" WAVE
    INDEX 01 00:00:00
  TRACK 05 AUDIO
    TITLE "Same Shit Different Day"
    PERFORMER "Tariq"
    ISRC C@lY39700066
    INDEX 00 06:38:55
FILE "05 Same Shit Different Day .wav" WAVE
    INDEX 01 00:00:00
  TRACK 06 AUDIO
    TITLE "Not Just a Waiter"
    PERFORMER "Tariq"
    ISRC C@lY39700070
    INDEX 00 05:25:48
FILE "06 Not Just a Waiter .wav" WAVE
    INDEX 01 00:00:00
FILE "07 Georgia .wav" WAVE
  TRACK 07 AUDIO
    TITLE "Georgia"
    PERFORMER "Tariq"
    ISRC C@lY39700068
    INDEX 01 00:00:00
FILE "08 Critic .wav" WAVE
  TRACK 08 AUDIO
    TITLE "Critic"
    PERFORMER "Tariq"
    ISRC C@lY39700069
    INDEX 01 00:00:00
  TRACK 09 AUDIO
    TITLE "Get Lost"
    PERFORMER "Tariq"
    ISRC C@lY39700067
    INDEX 00 03:37:30
FILE "09 Get Lost .wav" WAVE
    INDEX 01 00:00:00
FILE "10 Basement .wav" WAVE
  TRACK 10 AUDIO
    TITLE "Basement"
    PERFORMER "Tariq"
    ISRC C@lY39700071
    INDEX 01 00:00:00
FILE "11 Rock and Roll Singer .wav" WAVE
  TRACK 11 AUDIO
    TITLE "Rock and Roll Singer"
    PERFORMER "Tariq"
    ISRC C@lY39700072
    INDEX 01 00:00:00
  TRACK 12 AUDIO
    TITLE "I don't wanna be good"
    PERFORMER "Tariq"
    ISRC C@lY39700073
    INDEX 00 03:37:65
FILE "12 I don't wanna be good .wav" WAVE
    INDEX 01 00:00:00
Правила, инструкции, FAQ!!!
Торрент  Добавлен [26 мар 2019, 19:14] Скачать торрент Магнет ссылка
Скачать торрент
[ Размер 16.98 КБ / Просмотров 0 ]

Статус
Проверен 
 
Размер  386.98 МБ
Приватный: Нет (DHT включён)
.torrent скачан  0
 


     Отправить личное сообщение
   
Страница 1 из 1
Показать сообщения за:  Поле сортировки  
Начать новую тему Ответить на тему


Сейчас этот форум просматривают: нет зарегистрированных пользователей и гости: 0


Вы не можете начинать темы
Вы не можете отвечать на сообщения
Вы не можете редактировать свои сообщения
Вы не можете удалять свои сообщения
Вы не можете добавлять вложения

Перейти:  
cron