Начать новую тему Ответить на тему
Статистика раздачи
Размер: 407.19 МБ | Добавлен: 26 мар 2019, 20:40 | Скачали: 0
Сидеров: 1  [0 байт/сек]    Личеров: 0  [0 байт/сек]
Пред. тема | След. тема 

Автор
Сообщение

СообщениеДобавлено: 26 мар 2019, 20:40 

Ответить с цитатой 

dc Talk / Supernatural
Жанр: Pop Rock
Носитель: CD
Страна-производитель диска (релиза): USA
Год издания: 1998
Издатель (лейбл): ForeFront Records/Virgin
Номер по каталогу: FFD5195/7243 8 25195 2 2
Страна исполнителя (группы): USA
Аудиокодек: FLAC (*.flac)
Тип рипа: tracks+.cue
Битрейт аудио: lossless
Продолжительность: 0:56:50.
Источник (релизер): clustert
Наличие сканов в содержимом раздачи: да
Треклист:
01. Intro [0:00:24.47]
02. It's Killing Me [0:03:55.55]
03. Dive [0:04:21.10]
04. Consume Me [0:04:51.10]
05. My Friend (So Long) [0:04:10.45]
06. Fearless [0:05:07.03]
07. Godsend [0:04:13.62]
08. Wanna Be Loved [0:04:15.38]
09. The Truth [0:04:25.20]
10. Since I Met You [0:05:00.27]
11. Into Jesus [0:04:19.35]
12. Supernatural [0:03:59.63]
13. Red Letters [0:06:06.20]
14. There Is a Treason At Sea [0:01:40.05]
Код:
Exact Audio Copy V1.0 beta 3 from 29. August 2011
Отчёт EAC об извлечении, выполненном 4. ноября 2017, 12:52
dcTalk / Supernatural
Дисковод: ASUS    DRW-1814BLT   Adapter: 4  ID: 0
Режим чтения                 : Достоверность
Использование точного потока : Да
Отключение кэша аудио        : Да
Использование указателей C2  : Нет
Коррекция смещения при чтении                     : 6
Способность читать области Lead-in и Lead-out     : Нет
Заполнение пропущенных сэмплов тишиной            : Да
Удаление блоков с тишиной в начале и конце        : Нет
При вычислениях CRC использовались нулевые сэмплы : Да
Интерфейс                                         : Встроенный Win32-интерфейс для Win NT/2000
Обработка зазоров                                 : Добавлено к предыдущему треку
Выходной формат          : Пользовательский кодировщик
Выбранный битрейт        : 128 kBit/s
Качество                 : Высокий
Добавление ID3-тега      : Нет
Утилита сжатия           : C:\Program Files\Exact Audio Copy\Flac\flac.exe
Дополнительные параметры :  -V -8 -T "Genre=%genre%" -T "Artist=%artist%" -T "Title=%title%" -T "Album=%albumtitle%" -T "Date=%year%" -T "Tracknumber=%tracknr%" -T "Comment=EAC1.0b2 FLAC -8" %source%
TOC извлечённого CD
     Трек |   Старт  | Длительность | Начальный сектор | Конечный сектор
    ---------------------------------------------------------------------
       1  |  0:00.00 |    0:24.47   |           0      |       1846
       2  |  0:24.47 |    3:55.55   |        1847      |      19526
       3  |  4:20.27 |    4:21.10   |       19527      |      39111
       4  |  8:41.37 |    4:51.10   |       39112      |      60946
       5  | 13:32.47 |    4:10.45   |       60947      |      79741
       6  | 17:43.17 |    5:07.03   |       79742      |     102769
       7  | 22:50.20 |    4:13.62   |      102770      |     121806
       8  | 27:04.07 |    4:15.38   |      121807      |     140969
       9  | 31:19.45 |    4:25.20   |      140970      |     160864
      10  | 35:44.65 |    5:00.27   |      160865      |     183391
      11  | 40:45.17 |    4:19.35   |      183392      |     202851
      12  | 45:04.52 |    3:59.63   |      202852      |     220839
      13  | 49:04.40 |    6:06.20   |      220840      |     248309
      14  | 55:10.60 |    1:40.05   |      248310      |     255814
Трек  1
     Имя файла R:\Раздача 75\dc Talk - 1998 - Supernatural\01 Intro .wav
     Длина предзазора  0:00:02.00
     Пиковый уровень 21.8 %
     Скорость извлечения 2.3 X
     Качество трека 100.0 %
     CRC теста 18CBD209
     CRC копии 18CBD209
     Точное извлечение (достоверность 59)  [378B5A36]  (AR v2)
     Копирование... OK
Трек  2
     Имя файла R:\Раздача 75\dc Talk - 1998 - Supernatural\02 It's Killing Me .wav
     Пиковый уровень 90.5 %
     Скорость извлечения 4.0 X
     Качество трека 99.9 %
     CRC теста 6657DC3A
     CRC копии 6657DC3A
     Точное извлечение (достоверность 57)  [B197A1F7]  (AR v2)
     Копирование... OK
Трек  3
     Имя файла R:\Раздача 75\dc Talk - 1998 - Supernatural\03 Dive .wav
     Пиковый уровень 95.6 %
     Скорость извлечения 5.1 X
     Качество трека 100.0 %
     CRC теста EBA598CE
     CRC копии EBA598CE
     Точное извлечение (достоверность 58)  [5A5A0129]  (AR v2)
     Копирование... OK
Трек  4
     Имя файла R:\Раздача 75\dc Talk - 1998 - Supernatural\04 Consume Me .wav
     Пиковый уровень 93.7 %
     Скорость извлечения 5.1 X
     Качество трека 99.9 %
     CRC теста DAB70A70
     CRC копии DAB70A70
     Точное извлечение (достоверность 58)  [09FBE9D8]  (AR v2)
     Копирование... OK
Трек  5
     Имя файла R:\Раздача 75\dc Talk - 1998 - Supernatural\05 My Friend (So Long) .wav
     Пиковый уровень 91.8 %
     Скорость извлечения 7.0 X
     Качество трека 100.0 %
     CRC теста F1591A5B
     CRC копии F1591A5B
     Точное извлечение (достоверность 58)  [7635D73B]  (AR v2)
     Копирование... OK
Трек  6
     Имя файла R:\Раздача 75\dc Talk - 1998 - Supernatural\06 Fearless .wav
     Пиковый уровень 94.0 %
     Скорость извлечения 7.7 X
     Качество трека 100.0 %
     CRC теста D170F40B
     CRC копии D170F40B
     Точное извлечение (достоверность 56)  [41A01B5D]  (AR v2)
     Копирование... OK
Трек  7
     Имя файла R:\Раздача 75\dc Talk - 1998 - Supernatural\07 Godsend .wav
     Пиковый уровень 91.9 %
     Скорость извлечения 7.9 X
     Качество трека 100.0 %
     CRC теста 4A652055
     CRC копии 4A652055
     Точное извлечение (достоверность 59)  [C09FFD87]  (AR v2)
     Копирование... OK
Трек  8
     Имя файла R:\Раздача 75\dc Talk - 1998 - Supernatural\08 Wanna Be Loved .wav
     Пиковый уровень 88.6 %
     Скорость извлечения 8.2 X
     Качество трека 100.0 %
     CRC теста C65612BE
     CRC копии C65612BE
     Точное извлечение (достоверность 59)  [61D00243]  (AR v2)
     Копирование... OK
Трек  9
     Имя файла R:\Раздача 75\dc Talk - 1998 - Supernatural\09 The Truth .wav
     Пиковый уровень 94.9 %
     Скорость извлечения 6.6 X
     Качество трека 99.9 %
     CRC теста 2A395752
     CRC копии 2A395752
     Точное извлечение (достоверность 59)  [234AA33C]  (AR v2)
     Копирование... OK
Трек 10
     Имя файла R:\Раздача 75\dc Talk - 1998 - Supernatural\10 Since I Met You .wav
     Пиковый уровень 96.0 %
     Скорость извлечения 9.1 X
     Качество трека 100.0 %
     CRC теста 9EEFC69A
     CRC копии 9EEFC69A
     Точное извлечение (достоверность 58)  [63A75015]  (AR v2)
     Копирование... OK
Трек 11
     Имя файла R:\Раздача 75\dc Talk - 1998 - Supernatural\11 Into Jesus .wav
     Пиковый уровень 96.2 %
     Скорость извлечения 9.4 X
     Качество трека 100.0 %
     CRC теста 58171EC4
     CRC копии 58171EC4
     Точное извлечение (достоверность 56)  [1217A669]  (AR v2)
     Копирование... OK
Трек 12
     Имя файла R:\Раздача 75\dc Talk - 1998 - Supernatural\12 Supernatural .wav
     Пиковый уровень 96.0 %
     Скорость извлечения 9.5 X
     Качество трека 100.0 %
     CRC теста 32432226
     CRC копии 32432226
     Точное извлечение (достоверность 57)  [3222669F]  (AR v2)
     Копирование... OK
Трек 13
     Имя файла R:\Раздача 75\dc Talk - 1998 - Supernatural\13 Red Letters .wav
     Пиковый уровень 95.8 %
     Скорость извлечения 10.4 X
     Качество трека 100.0 %
     CRC теста 9A80997D
     CRC копии 9A80997D
     Точное извлечение (достоверность 57)  [9C298040]  (AR v2)
     Копирование... OK
Трек 14
     Имя файла R:\Раздача 75\dc Talk - 1998 - Supernatural\14 There Is a Treason At Sea .wav
     Пиковый уровень 90.1 %
     Скорость извлечения 8.4 X
     Качество трека 100.0 %
     CRC теста A27B2E68
     CRC копии A27B2E68
     Точное извлечение (достоверность 55)  [A829FC6F]  (AR v2)
     Копирование... OK
Все треки извлечены точно
Ошибок не произошло
Конец отчёта
==== Контрольная сумма отчёта B14DBDB955F4672CED444B2F39B100F4D6B7EF695142F6943B3ACF72C65CD3D9 ====
Код:
REM GENRE "Pop Rock"
REM DATE 1998
REM DISCID B00D520E
REM COMMENT "ExactAudioCopy v1.0b3"
PERFORMER "dcTalk"
TITLE "Supernatural"
FILE "01 Intro .wav" WAVE
  TRACK 01 AUDIO
    TITLE "Intro"
    PERFORMER "dcTalk"
    ISRC H2MS29800199
    INDEX 01 00:00:00
FILE "02 It's Killing Me .wav" WAVE
  TRACK 02 AUDIO
    TITLE "It's Killing Me"
    PERFORMER "dcTalk"
    ISRC H2MS29800199
    INDEX 01 00:00:00
FILE "03 Dive .wav" WAVE
  TRACK 03 AUDIO
    TITLE "Dive"
    PERFORMER "dcTalk"
    ISRC H2MS29800200
    INDEX 01 00:00:00
FILE "04 Consume Me .wav" WAVE
  TRACK 04 AUDIO
    TITLE "Consume Me"
    PERFORMER "dcTalk"
    ISRC H2MS29800202
    INDEX 01 00:00:00
FILE "05 My Friend (So Long) .wav" WAVE
  TRACK 05 AUDIO
    TITLE "My Friend (So Long)"
    PERFORMER "dcTalk"
    ISRC H2MS29800203
    INDEX 01 00:00:00
FILE "06 Fearless .wav" WAVE
  TRACK 06 AUDIO
    TITLE "Fearless"
    PERFORMER "dcTalk"
    ISRC H2MS29800201
    INDEX 01 00:00:00
FILE "07 Godsend .wav" WAVE
  TRACK 07 AUDIO
    TITLE "Godsend"
    PERFORMER "dcTalk"
    ISRC H2MS29800196
    INDEX 01 00:00:00
FILE "08 Wanna Be Loved .wav" WAVE
  TRACK 08 AUDIO
    TITLE "Wanna Be Loved"
    PERFORMER "dcTalk"
    ISRC H2MS29800204
    INDEX 01 00:00:00
FILE "09 The Truth .wav" WAVE
  TRACK 09 AUDIO
    TITLE "The Truth"
    PERFORMER "dcTalk"
    ISRC H2MS29800205
    INDEX 01 00:00:00
FILE "10 Since I Met You .wav" WAVE
  TRACK 10 AUDIO
    TITLE "Since I Met You"
    PERFORMER "dcTalk"
    ISRC H2MS29800206
    INDEX 01 00:00:00
FILE "11 Into Jesus .wav" WAVE
  TRACK 11 AUDIO
    TITLE "Into Jesus"
    PERFORMER "dcTalk"
    ISRC H2MS29800206
    INDEX 01 00:00:00
FILE "12 Supernatural .wav" WAVE
  TRACK 12 AUDIO
    TITLE "Supernatural"
    PERFORMER "dcTalk"
    ISRC H2MS29800197
    INDEX 01 00:00:00
FILE "13 Red Letters .wav" WAVE
  TRACK 13 AUDIO
    TITLE "Red Letters"
    PERFORMER "dcTalk"
    ISRC H2MS29800207
    INDEX 01 00:00:00
FILE "14 There Is a Treason At Sea .wav" WAVE
  TRACK 14 AUDIO
    TITLE "There Is a Treason At Sea"
    PERFORMER "dcTalk"
    ISRC H2MS29800229
    INDEX 01 00:00:00
Правила, инструкции, FAQ!!!
Торрент  Добавлен [26 мар 2019, 20:40] Скачать торрент Магнет ссылка
Скачать торрент
[ Размер 17.74 КБ / Просмотров 7 ]

Статус
Проверен 
 
Размер  407.19 МБ
Приватный: Нет (DHT включён)
.torrent скачан  0
 


     Отправить личное сообщение
   
Страница 1 из 1
Показать сообщения за:  Поле сортировки  
Начать новую тему Ответить на тему


Сейчас этот форум просматривают: нет зарегистрированных пользователей и гости: 0


Вы не можете начинать темы
Вы не можете отвечать на сообщения
Вы не можете редактировать свои сообщения
Вы не можете удалять свои сообщения
Вы не можете добавлять вложения

Перейти:  
cron