Начать новую тему Ответить на тему
Статистика раздачи
Размер: 323.79 МБ | Добавлен: 26 мар 2019, 20:38 | Скачали: 0
Сидеров: 0  [0 байт/сек]    Личеров: 0  [0 байт/сек]
Пред. тема | След. тема 

Автор
Сообщение

СообщениеДобавлено: 26 мар 2019, 20:38 

Ответить с цитатой 

HelloGoodbye / Zombies! Aliens! Vampires! Dinosaurs!
Жанр: Pop Rock/Synthpop/Indie Rock
Страна-производитель диска: EU
Год издания: 2006
Издатель (лейбл): Drive-Thru Records
Номер по каталогу: Sony BMG 88697096572
Страна: U.S.A.
Аудиокодек: FLAC (*.flac)
Тип рипа: image+.cue
Битрейт аудио: lossless
Продолжительность: 46:01
Источник (релизер): CD
Наличие сканов в содержимом раздачи: да
Треклист:
01. All Of Your Love 2:56
02. Here (In Your Arms) 4:00
03. All Time Lows 2:44
04. Stuck To You 2:44
05. Homewrecker 2:31
06. Oh, It Is Love 4:00
07. Baby, It's Fact 3:16
08. Figures A and B (means you and me) 2:21
09. I Saw It On Your Keyboard 3:03
10. Touchdown Turnaround (Don't Give Up On Me) 2:30
11. Two Weeks In Hawaii 4:51
Bonus Tracks:
12. Baby, It's Fact (live from London's Mean Fiddler) 4:07
13. All Of Your Love (live from London's Mean Fiddler) 3:45
14. Shimmy Shimmy Quarter Turn (taken from HelloGoodbye's s/t EP) 3:13
Код:
Exact Audio Copy V1.0 beta 3 from 29. August 2011
Отчёт EAC об извлечении, выполненном 5. июня 2012, 14:51
HelloGoodbye / Zombies! Aliens! Vampires! Dinosaurs!
Дисковод: Optiarc DVD RW AD-7240S   Adapter: 1  ID: 0
Режим чтения                 : Достоверность
Использование точного потока : Да
Отключение кэша аудио        : Да
Использование указателей C2  : Нет
Коррекция смещения при чтении                     : 48
Способность читать области Lead-in и Lead-out     : Нет
Заполнение пропущенных сэмплов тишиной            : Да
Удаление блоков с тишиной в начале и конце        : Нет
При вычислениях CRC использовались нулевые сэмплы : Да
Интерфейс                                         : Встроенный Win32-интерфейс для Win NT/2000
Выходной формат          : Пользовательский кодировщик
Выбранный битрейт        : 128 kBit/s
Качество                 : Высокий
Добавление ID3-тега      : Нет
Утилита сжатия           : C:\Program Files\Exact Audio Copy\Flac\flac.exe
Дополнительные параметры : -V -8 -T "Date=%year%" -T "Genre=%genre%" %source%
TOC извлечённого CD
     Трек |   Старт  | Длительность | Начальный сектор | Конечный сектор
    ---------------------------------------------------------------------
       1  |  0:00.00 |    2:56.42   |           0      |      13241
       2  |  2:56.42 |    4:00.41   |       13242      |      31282
       3  |  6:57.08 |    2:44.18   |       31283      |      43600
       4  |  9:41.26 |    2:44.44   |       43601      |      55944
       5  | 12:25.70 |    2:31.40   |       55945      |      67309
       6  | 14:57.35 |    4:00.27   |       67310      |      85336
       7  | 18:57.62 |    3:16.74   |       85337      |     100110
       8  | 22:14.61 |    2:21.00   |      100111      |     110685
       9  | 24:35.61 |    3:03.02   |      110686      |     124412
      10  | 27:38.63 |    2:30.09   |      124413      |     135671
      11  | 30:08.72 |    4:51.16   |      135672      |     157512
      12  | 35:00.13 |    4:07.53   |      157513      |     176090
      13  | 39:07.66 |    3:45.25   |      176091      |     192990
      14  | 42:53.16 |    3:13.47   |      192991      |     207512
Характеристики диапазона извлечения и сообщения об ошибках
Выбранный диапазон
     Имя файла D:\Музыка\LOSSLESS\2007 HelloGoodbye - Zombies! Aliens! Vampires! Dinosaurus!\HelloGoodbye - Zombies! Aliens! Vampires! Dinosaurs!.wav
     Пиковый уровень 100.0 %
     Скорость извлечения 3.7 X
     Качество диапазона 100.0 %
     CRC теста 4371E3D0
     CRC копии 4371E3D0
     Копирование... OK
Ошибок не произошло
AccurateRip: сводка
Трек  1  : извлечено точно (доверие 10)  [AA21C200]  (AR v1)
Трек  2  : извлечено точно (доверие 10)  [A9B416C2]  (AR v1)
Трек  3  : извлечено точно (доверие 10)  [8924DA59]  (AR v1)
Трек  4  : извлечено точно (доверие 10)  [E79F582E]  (AR v1)
Трек  5  : извлечено точно (доверие 10)  [7551431B]  (AR v1)
Трек  6  : извлечено точно (доверие 10)  [235F0D97]  (AR v1)
Трек  7  : извлечено точно (доверие 10)  [23E87457]  (AR v1)
Трек  8  : извлечено точно (доверие 9)  [44AAF98D]  (AR v1)
Трек  9  : извлечено точно (доверие 9)  [34B1F002]  (AR v1)
Трек 10  : извлечено точно (доверие 9)  [A126414D]  (AR v1)
Трек 11  : извлечено точно (доверие 9)  [98211EC0]  (AR v1)
Трек 12  : извлечено точно (доверие 9)  [D4489664]  (AR v1)
Трек 13  : извлечено точно (доверие 8)  [71327A79]  (AR v1)
Трек 14  : извлечено точно (доверие 8)  [655B6DAC]  (AR v1)
Все треки извлечены точно
Конец отчёта
==== Контрольная сумма отчёта 36C5CDC0FCD868D53483A010C047D10F1E1E5EF476578B6E90072144FAAB0A79 ====
[pre]REM GENRE Synthpop
REM DATE 2006
REM DISCID CB0ACE0E
REM COMMENT "ExactAudioCopy v1.0b3"
PERFORMER "HelloGoodbye"
TITLE "Zombies! Aliens! Vampires! Dinosaurs!"
FILE "HelloGoodbye - Zombies! Aliens! Vampires! Dinosaurs!.flac" WAVE
TRACK 01 AUDIO
TITLE "All Of Your Love"
PERFORMER "HelloGoodbye"
ISRC USDTR0600110
INDEX 01 00:00:00
TRACK 02 AUDIO
TITLE "Here (In Your Arms)"
PERFORMER "HelloGoodbye"
ISRC USDTR0600111
INDEX 01 02:56:42
TRACK 03 AUDIO
TITLE "All Time Lows"
PERFORMER "HelloGoodbye"
ISRC USDTR0600112
INDEX 01 06:57:08
TRACK 04 AUDIO
TITLE "Stuck To You"
PERFORMER "HelloGoodbye"
ISRC USDTR0600113
INDEX 01 09:41:26
TRACK 05 AUDIO
TITLE "Homewrecker"
PERFORMER "HelloGoodbye"
ISRC USDTR0600114
INDEX 01 12:25:70
TRACK 06 AUDIO
TITLE "Oh, It Is Love"
PERFORMER "HelloGoodbye"
ISRC USDTR0600115
INDEX 01 14:57:35
TRACK 07 AUDIO
TITLE "Baby, It's Fact"
PERFORMER "HelloGoodbye"
ISRC USDTR0600116
INDEX 01 18:57:62
TRACK 08 AUDIO
TITLE "Figures A and B (means you and me)"
PERFORMER "HelloGoodbye"
ISRC USDTR0600117
INDEX 01 22:14:61
TRACK 09 AUDIO
TITLE "I Saw It On Your Keyboard"
PERFORMER "HelloGoodbye"
ISRC USDTR0600118
INDEX 01 24:35:61
TRACK 10 AUDIO
TITLE "Touchdown Turnaround (Don't Give Up On Me)"
PERFORMER "HelloGoodbye"
ISRC USDTR0600119
INDEX 01 27:38:63
TRACK 11 AUDIO
TITLE "Two Weeks In Hawaii"
PERFORMER "HelloGoodbye"
ISRC USDTR0600120
INDEX 01 30:08:72
TRACK 12 AUDIO
TITLE "Baby, It's Fact [Live from London's Mean Fiddler]"
PERFORMER "HelloGoodbye"
ISRC USSM10701656
INDEX 00 34:59:73
INDEX 01 35:00:13
TRACK 13 AUDIO
TITLE "All Of Your Love [Live from London's Mean Fiddler]"
PERFORMER "HelloGoodbye"
ISRC USSM10701655
INDEX 01 39:07:66
TRACK 14 AUDIO
TITLE "Shimmy Shimmy Quarter Turn [EP version]"
PERFORMER "HelloGoodbye"
ISRC GBAJE0401179
INDEX 00 42:53:05
INDEX 01 42:53:16
Калифорнийская группа, выбравшая себе название в честь одной из песен "The Beatles", стала одним из главных открытий 2007 году. Группа существует с 2001 года, в 2004 вышел их первый мини-альбом "Advocado EP". "Zombies! Aliens! Vampires! Dinosaurs!" - дебютный альбом группы, вобравший некоторые из старых песен, уже ставших хитами. К настоящему моменту он разошелся платиновым тиражом в США, его тираж превысил пол-миллиона копий. В январе 2007 сингл "Here (In Your Arms)" вошел в американский Тор 10. В России группа пользуется существенным успехом - песни "HelloGoodbye" звучат на крупнейших радиостанциях, включая радио "Maximum". http://soundcheck.ru
Правила, инструкции, FAQ!!!
Торрент  Добавлен [26 мар 2019, 20:38] Скачать торрент Магнет ссылка
Скачать торрент
[ Размер 13.64 КБ / Просмотров 2 ]

Статус
Проверен 
 
Размер  323.79 МБ
Приватный: Нет (DHT включён)
.torrent скачан  0
 


     Отправить личное сообщение
   
Страница 1 из 1
Показать сообщения за:  Поле сортировки  
Начать новую тему Ответить на тему


Сейчас этот форум просматривают: нет зарегистрированных пользователей и гости: 0


Вы не можете начинать темы
Вы не можете отвечать на сообщения
Вы не можете редактировать свои сообщения
Вы не можете удалять свои сообщения
Вы не можете добавлять вложения

Перейти:  
cron