Начать новую тему Ответить на тему
Статистика раздачи
Размер: 509.85 МБ | Добавлен: 27 мар 2019, 01:05 | Скачали: 0
Сидеров: 0  [0 байт/сек]    Личеров: 0  [0 байт/сек]
Пред. тема | След. тема 

Автор
Сообщение

СообщениеДобавлено: 27 мар 2019, 01:05 

Ответить с цитатой 

Duran Duran - The Wedding Album (Japanese release)
Жанр: Pop Rock / Synth Pop
Год выпуска диска: 1993
Производитель диска: TOSHIBA EMI JAPAN
Аудио кодек: FLAC
Тип рипа: image+.cue
Битрейт аудио: lossless
Продолжительность: 70:13
Трэклист:
1 Too Much Information 4:56
2 Ordinary World 5:40 
3 Love Voodoo 4:58
4 Drowning Man 5:14
5 Shotgun 0:54
6 Come Undone 4:38
7 Breath After Breath 4:57
8 UMF 5:32
9 None Of The Above 4:22
10 Femme Fatale 5:17
11 Shelter 4:24
12 To Whom It May Concern 4:22
13 Sin Of The City 7:15
BONUS TRACKS: ( only JAPANESE RELEASE )
14 Time For Temptation 3:46
15 Stop Dead 3:52
Доп. информация: http://www.discogs.com/Duran-Duran-Duran-Duran-The-Wedding-Album/release/1407343
Традиционное для японских изданий, шикарное звучание альбома!
Мой любимый и, скорее всего , один из самых удачных альбомов DURAN DURAN, мною был приобретен в японском варианте, так как бонус-трек Stop Dead , который, согласно DISCOGS, является иным вариантом, чем тот, что выходил в Европе на бонус CD, с моей точки зрения, звучит просто потрясающе, наравне с хитами Ordinary World, Come Undone, None Of The Above.
Сканы вкладыша - внутри раздачи. Сам вкладыш- это просто самостоятельное произведение искусства. В английском варианте, который представлен на трекере, я не нашел его - то ли его там нет , то ли не удалось его втиснуть в раздачу...
X Lossless Decoder version 20091212 (114.6)
XLD extraction logfile from 2009-12-13 23:44:30 +0200
Duran Duran / The Wedding Album
Used drive : MATSHITA DVD-R UJ-857D (revision KCVB)
Use cdparanoia mode : YES (CDParanoia III 10.2 engine)
Disable audio cache : OK for the drive with cache less than 2750KB
Make use of C2 pointers : NO
Read offset correction : 102
Max retry count : 100
TOC of the extracted CD
Track | Start | Length | Start sector | End sector
---------------------------------------------------------
1 | 00:00:32 | 04:56:43 | 32 | 22274
2 | 04:57:00 | 05:40:15 | 22275 | 47789
3 | 10:37:15 | 04:58:20 | 47790 | 70159
4 | 15:35:35 | 05:14:25 | 70160 | 93734
5 | 20:49:60 | 00:54:05 | 93735 | 97789
6 | 21:43:65 | 04:38:52 | 97790 | 118691
7 | 26:22:42 | 04:57:45 | 118692 | 141011
8 | 31:20:12 | 05:32:48 | 141012 | 165959
9 | 36:52:60 | 04:22:00 | 165960 | 185609
10 | 41:14:60 | 05:17:62 | 185610 | 209446
11 | 46:32:47 | 04:24:05 | 209447 | 229251
12 | 50:56:52 | 04:22:45 | 229252 | 248946
13 | 55:19:22 | 07:13:33 | 248947 | 281454
14 | 62:32:55 | 03:46:25 | 281455 | 298429
15 | 66:19:05 | 03:52:35 | 298430 | 315864
All Tracks
Filename : /Users/VIRO/Music/Duran Duran - The Wedding Album.flac
CRC32 hash (test run) : 1CCE3B98
CRC32 hash : 1CCE3B98
CRC32 hash (skip zero) : 2CF42E74
Statistics
Read error : 0
Skipped (treated as error) : 0
Edge jitter error (maybe fixed) : 0
Atom jitter error (maybe fixed) : 0
Drift error (maybe fixed) : 0
Dropped bytes error (maybe fixed) : 0
Duplicated bytes error (maybe fixed) : 0
Inconsistency in error sectors : 0
Track 01
CRC32 hash (test run) : D80A8F31
CRC32 hash : D80A8F31
CRC32 hash (skip zero) : A34263B3
AccurateRip signature : 3BC4F18B
->Track not present in AccurateRip database.
Statistics
Read error : 0
Skipped (treated as error) : 0
Edge jitter error (maybe fixed) : 0
Atom jitter error (maybe fixed) : 0
Drift error (maybe fixed) : 0
Dropped bytes error (maybe fixed) : 0
Duplicated bytes error (maybe fixed) : 0
Inconsistency in error sectors : 0
Track 02
CRC32 hash (test run) : 7C744BF1
CRC32 hash : 7C744BF1
CRC32 hash (skip zero) : C88C9B47
AccurateRip signature : FB1042A4
->Track not present in AccurateRip database.
Statistics
Read error : 0
Skipped (treated as error) : 0
Edge jitter error (maybe fixed) : 0
Atom jitter error (maybe fixed) : 0
Drift error (maybe fixed) : 0
Dropped bytes error (maybe fixed) : 0
Duplicated bytes error (maybe fixed) : 0
Inconsistency in error sectors : 0
Track 03
CRC32 hash (test run) : 5FA410AB
CRC32 hash : 5FA410AB
CRC32 hash (skip zero) : 760BF2C8
AccurateRip signature : C8B1CF65
->Track not present in AccurateRip database.
Statistics
Read error : 0
Skipped (treated as error) : 0
Edge jitter error (maybe fixed) : 0
Atom jitter error (maybe fixed) : 0
Drift error (maybe fixed) : 0
Dropped bytes error (maybe fixed) : 0
Duplicated bytes error (maybe fixed) : 0
Inconsistency in error sectors : 0
Track 04
CRC32 hash (test run) : E76E5BCD
CRC32 hash : E76E5BCD
CRC32 hash (skip zero) : B1E0E285
AccurateRip signature : BF9A5E95
->Track not present in AccurateRip database.
Statistics
Read error : 0
Skipped (treated as error) : 0
Edge jitter error (maybe fixed) : 0
Atom jitter error (maybe fixed) : 0
Drift error (maybe fixed) : 0
Dropped bytes error (maybe fixed) : 0
Duplicated bytes error (maybe fixed) : 0
Inconsistency in error sectors : 0
Track 05
CRC32 hash (test run) : 2EC1665E
CRC32 hash : 2EC1665E
CRC32 hash (skip zero) : F8C7A870
AccurateRip signature : 64B3750C
->Track not present in AccurateRip database.
Statistics
Read error : 0
Skipped (treated as error) : 0
Edge jitter error (maybe fixed) : 0
Atom jitter error (maybe fixed) : 0
Drift error (maybe fixed) : 0
Dropped bytes error (maybe fixed) : 0
Duplicated bytes error (maybe fixed) : 0
Inconsistency in error sectors : 0
Track 06
CRC32 hash (test run) : B5F9181B
CRC32 hash : B5F9181B
CRC32 hash (skip zero) : FFD2A7A2
AccurateRip signature : 787FF660
->Track not present in AccurateRip database.
Statistics
Read error : 0
Skipped (treated as error) : 0
Edge jitter error (maybe fixed) : 0
Atom jitter error (maybe fixed) : 0
Drift error (maybe fixed) : 0
Dropped bytes error (maybe fixed) : 0
Duplicated bytes error (maybe fixed) : 0
Inconsistency in error sectors : 0
Track 07
CRC32 hash (test run) : 4D085187
CRC32 hash : 4D085187
CRC32 hash (skip zero) : D4746AE0
AccurateRip signature : 351D2098
->Track not present in AccurateRip database.
Statistics
Read error : 0
Skipped (treated as error) : 0
Edge jitter error (maybe fixed) : 0
Atom jitter error (maybe fixed) : 0
Drift error (maybe fixed) : 0
Dropped bytes error (maybe fixed) : 0
Duplicated bytes error (maybe fixed) : 0
Inconsistency in error sectors : 0
Track 08
CRC32 hash (test run) : 19683271
CRC32 hash : 19683271
CRC32 hash (skip zero) : 5599E17F
AccurateRip signature : 88CFEAAF
->Track not present in AccurateRip database.
Statistics
Read error : 0
Skipped (treated as error) : 0
Edge jitter error (maybe fixed) : 0
Atom jitter error (maybe fixed) : 0
Drift error (maybe fixed) : 0
Dropped bytes error (maybe fixed) : 0
Duplicated bytes error (maybe fixed) : 0
Inconsistency in error sectors : 0
Track 09
CRC32 hash (test run) : 02103C1B
CRC32 hash : 02103C1B
CRC32 hash (skip zero) : 8BF99A26
AccurateRip signature : EBBF3BD9
->Track not present in AccurateRip database.
Statistics
Read error : 0
Skipped (treated as error) : 0
Edge jitter error (maybe fixed) : 0
Atom jitter error (maybe fixed) : 0
Drift error (maybe fixed) : 0
Dropped bytes error (maybe fixed) : 0
Duplicated bytes error (maybe fixed) : 0
Inconsistency in error sectors : 0
Track 10
CRC32 hash (test run) : 53083770
CRC32 hash : 53083770
CRC32 hash (skip zero) : CE6443C4
AccurateRip signature : 596FF754
->Track not present in AccurateRip database.
Statistics
Read error : 0
Skipped (treated as error) : 0
Edge jitter error (maybe fixed) : 0
Atom jitter error (maybe fixed) : 0
Drift error (maybe fixed) : 0
Dropped bytes error (maybe fixed) : 0
Duplicated bytes error (maybe fixed) : 0
Inconsistency in error sectors : 0
Track 11
CRC32 hash (test run) : C310D4D7
CRC32 hash : C310D4D7
CRC32 hash (skip zero) : C85BCC39
AccurateRip signature : 5376EAAE
->Track not present in AccurateRip database.
Statistics
Read error : 0
Skipped (treated as error) : 0
Edge jitter error (maybe fixed) : 0
Atom jitter error (maybe fixed) : 0
Drift error (maybe fixed) : 0
Dropped bytes error (maybe fixed) : 0
Duplicated bytes error (maybe fixed) : 0
Inconsistency in error sectors : 0
Track 12
CRC32 hash (test run) : 1B70DB21
CRC32 hash : 1B70DB21
CRC32 hash (skip zero) : 2378BA2A
AccurateRip signature : 2698BAD2
->Track not present in AccurateRip database.
Statistics
Read error : 0
Skipped (treated as error) : 0
Edge jitter error (maybe fixed) : 0
Atom jitter error (maybe fixed) : 0
Drift error (maybe fixed) : 0
Dropped bytes error (maybe fixed) : 0
Duplicated bytes error (maybe fixed) : 0
Inconsistency in error sectors : 0
Track 13
CRC32 hash (test run) : C3328B24
CRC32 hash : C3328B24
CRC32 hash (skip zero) : FFF6B926
AccurateRip signature : 61A1F054
->Track not present in AccurateRip database.
Statistics
Read error : 0
Skipped (treated as error) : 0
Edge jitter error (maybe fixed) : 0
Atom jitter error (maybe fixed) : 0
Drift error (maybe fixed) : 0
Dropped bytes error (maybe fixed) : 0
Duplicated bytes error (maybe fixed) : 0
Inconsistency in error sectors : 0
Track 14
CRC32 hash (test run) : E7A2D939
CRC32 hash : E7A2D939
CRC32 hash (skip zero) : 83872FEF
AccurateRip signature : 9978F085
->Track not present in AccurateRip database.
Statistics
Read error : 0
Skipped (treated as error) : 0
Edge jitter error (maybe fixed) : 0
Atom jitter error (maybe fixed) : 0
Drift error (maybe fixed) : 0
Dropped bytes error (maybe fixed) : 0
Duplicated bytes error (maybe fixed) : 0
Inconsistency in error sectors : 0
Track 15
CRC32 hash (test run) : C83F2338
CRC32 hash : C83F2338
CRC32 hash (skip zero) : C130D6E8
AccurateRip signature : 4954CF23
->Track not present in AccurateRip database.
Statistics
Read error : 0
Skipped (treated as error) : 0
Edge jitter error (maybe fixed) : 0
Atom jitter error (maybe fixed) : 0
Drift error (maybe fixed) : 0
Dropped bytes error (maybe fixed) : 0
Duplicated bytes error (maybe fixed) : 0
Inconsistency in error sectors : 0
No errors occurred
End of status report
Правила, инструкции, FAQ!!!
Торрент  Добавлен [27 мар 2019, 01:05] Скачать торрент Магнет ссылка
Скачать торрент
[ Размер 41.05 КБ / Просмотров 4 ]

Статус
Проверен 
 
Размер  509.85 МБ
Приватный: Нет (DHT включён)
.torrent скачан  0
 


     Отправить личное сообщение
   
Страница 1 из 1
Показать сообщения за:  Поле сортировки  
Начать новую тему Ответить на тему


Сейчас этот форум просматривают: нет зарегистрированных пользователей и гости: 0


Вы не можете начинать темы
Вы не можете отвечать на сообщения
Вы не можете редактировать свои сообщения
Вы не можете удалять свои сообщения
Вы не можете добавлять вложения

Перейти:  
cron