Начать новую тему Ответить на тему
Статистика раздачи
Размер: 964.4 МБ | Добавлен: 26 мар 2019, 20:49 | Скачали: 0
Сидеров: 0  [0 байт/сек]    Личеров: 0  [0 байт/сек]
Пред. тема | След. тема 

Автор
Сообщение

СообщениеДобавлено: 26 мар 2019, 20:49 

Ответить с цитатой 

Swan Lee / The Complete Collection 1997-2005
Жанр: Pop-Rock
Страна-производитель диска: Denmark
Год издания диска: 2007
Издатель (лейбл): Gogo Records
Номер по каталогу: GGRCD666
Страна: Denmark
Аудио кодек: FLAC (*.flac)
Тип рипа: image+.cue
Битрейт аудио: lossless
Источник (релизер): оригинальное 2CD издание
Наличие сканов в содержимом раздачи: да

Треклист:
CD 01 - Enter:
1. Flowers In The Wintertime (3:50)
2. Go On (4:08)
3. Enter (3:45)
4. Stay Tonight (3:27)
5. Walk With Me (4:41)
6. Tomorrow Never Dies (4:15)
7. You Cannot Hide (4:24)
8. Dream Away (4:08)
9. Stay (3:43)
10. When You Are Gone (7:44)
11. Stay Tonight (Instrumental Bleeder Version) (2:10)
12. Neverending Land (1997 Promo EP) (4:12)
13. Dansevise (3:03)
14. Blue Monday (5:01)
15. Flowers In The Wintertime (Live Vega 2004) (4:35)
16. Enter (Live Vega 2004) (4:35)
17. Tomorrow Never Dies (Danish Music Awards 2002 Version) (4:16)
18. In Your Life (Acoustic) (2:25)
Продолжительность: 73:55
CD 02 - Swan Lee:
1. Bring Me Back (5:14)
2. Love Will Keep You Warm (3:40)
3. I Don't Mind (4:02)
4. What Is Love? (3:35)
5. What You Get... Is What You See (3:44)
6. Don't Take My Love (3:37)
7. Find My Way Home (4:03)
8. Perfume (3:46)
9. In Your Life (2:45)
10. Lord Knows, I Can Be Strong (3:47)
11. Peace Of Mind (5:37)
12. Din Gamle Bla Frakke (3:55)
13. Love Will Keep You Warm (feat. Howard Tate, Live Roskilde 2004) (4:29)
14. Lord Knows I Can Be Strong (feat. Claus Hempler, Live Roskilde 2004) (3:59)
15. What You Get... Is What You See (Live Roskilde 2004) (3:47)
16. I Don't Mind (Snoe & Asen We Don't Care Bootleg Remix) (4:34)
17. In Your Life (Snor & Asen Remix) (4:15)
18. Don't Take My Love (Buda 2007 Remix) (3:13)
Продолжительность: 72:03
Код:
Exact Audio Copy V0.99 prebeta 5 from 4. May 2009
EAC extraction logfile from 28. October 2010, 0:26
Swan Lee / The Complete Collection
Used drive  : _NEC    DVD_RW ND-4551A   Adapter: 2  ID: 0
Read mode               : Secure
Utilize accurate stream : Yes
Defeat audio cache      : Yes
Make use of C2 pointers : No
Read offset correction                      : 48
Overread into Lead-In and Lead-Out          : No
Fill up missing offset samples with silence : Yes
Delete leading and trailing silent blocks   : No
Null samples used in CRC calculations       : Yes
Used interface                              : Native Win32 interface for Win NT & 2000
Used output format              : User Defined Encoder
Selected bitrate                : 1024 kBit/s
Quality                         : High
Add ID3 tag                     : No
Command line compressor         : C:\Program Files\Exact Audio Copy\FLAC\FLAC.EXE
Additional command line options : -8 -V %s
TOC of the extracted CD
     Track |   Start  |  Length  | Start sector | End sector
    ---------------------------------------------------------
        1  |  0:00.00 |  3:50.31 |         0    |    17280
        2  |  3:50.31 |  4:07.50 |     17281    |    35855
        3  |  7:58.06 |  3:45.17 |     35856    |    52747
        4  | 11:43.23 |  3:26.54 |     52748    |    68251
        5  | 15:10.02 |  4:40.50 |     68252    |    89301
        6  | 19:50.52 |  4:15.15 |     89302    |   108441
        7  | 24:05.67 |  4:23.41 |    108442    |   128207
        8  | 28:29.33 |  4:08.27 |    128208    |   146834
        9  | 32:37.60 |  3:43.32 |    146835    |   163591
       10  | 36:21.17 |  7:43.65 |    163592    |   198381
       11  | 44:05.07 |  2:09.57 |    198382    |   208113
       12  | 46:14.64 |  4:12.03 |    208114    |   227016
       13  | 50:26.67 |  3:03.23 |    227017    |   240764
       14  | 53:30.15 |  5:01.28 |    240765    |   263367
       15  | 58:31.43 |  4:07.65 |    263368    |   281957
       16  | 62:39.33 |  4:34.50 |    281958    |   302557
       17  | 67:14.08 |  4:16.45 |    302558    |   321802
       18  | 71:30.53 |  2:25.23 |    321803    |   332700
Range status and errors
Selected range
     Filename D:\Music\Swan Lee - The Complete Collection\Disc1\Swan Lee - The Complete Collection CD1.wav
     Peak level 100.0 %
     Range quality 99.9 %
     Test CRC 5567D1CB
     Copy CRC 5567D1CB
     Copy OK
No errors occurred
AccurateRip summary
Track  1  accurately ripped (confidence 15)  [BE5912F8]
Track  2  accurately ripped (confidence 15)  [0A990789]
Track  3  accurately ripped (confidence 15)  [07AF356C]
Track  4  accurately ripped (confidence 15)  [A7850328]
Track  5  accurately ripped (confidence 15)  [5D04C143]
Track  6  accurately ripped (confidence 15)  [B6B9C888]
Track  7  accurately ripped (confidence 15)  [FC82D510]
Track  8  accurately ripped (confidence 15)  [29667638]
Track  9  accurately ripped (confidence 15)  [D5665F00]
Track 10  accurately ripped (confidence 15)  [764AB7B8]
Track 11  accurately ripped (confidence 15)  [B2F768E9]
Track 12  accurately ripped (confidence 15)  [73E098B6]
Track 13  accurately ripped (confidence 15)  [A63B6A4C]
Track 14  accurately ripped (confidence 15)  [98DE6E66]
Track 15  accurately ripped (confidence 15)  [A57D6593]
Track 16  accurately ripped (confidence 15)  [19EF3217]
Track 17  accurately ripped (confidence 15)  [F01F7E2C]
Track 18  accurately ripped (confidence 14)  [3F1C9ECA]
All tracks accurately ripped
End of status report
Код:
Exact Audio Copy V0.99 prebeta 5 from 4. May 2009
EAC extraction logfile from 27. October 2010, 23:51
Swan Lee / The Complete Collection
Used drive  : _NEC    DVD_RW ND-4551A   Adapter: 2  ID: 0
Read mode               : Secure
Utilize accurate stream : Yes
Defeat audio cache      : Yes
Make use of C2 pointers : No
Read offset correction                      : 48
Overread into Lead-In and Lead-Out          : No
Fill up missing offset samples with silence : Yes
Delete leading and trailing silent blocks   : No
Null samples used in CRC calculations       : Yes
Used interface                              : Native Win32 interface for Win NT & 2000
Used output format              : User Defined Encoder
Selected bitrate                : 1024 kBit/s
Quality                         : High
Add ID3 tag                     : No
Command line compressor         : C:\Program Files\Exact Audio Copy\FLAC\FLAC.EXE
Additional command line options : -8 -V %s
TOC of the extracted CD
     Track |   Start  |  Length  | Start sector | End sector
    ---------------------------------------------------------
        1  |  0:00.00 |  5:14.03 |         0    |    23552
        2  |  5:14.03 |  3:40.07 |     23553    |    40059
        3  |  8:54.10 |  4:01.72 |     40060    |    58206
        4  | 12:56.07 |  3:34.65 |     58207    |    74321
        5  | 16:30.72 |  3:44.37 |     74322    |    91158
        6  | 20:15.34 |  3:36.72 |     91159    |   107430
        7  | 23:52.31 |  4:03.23 |    107431    |   125678
        8  | 27:55.54 |  3:45.55 |    125679    |   142608
        9  | 31:41.34 |  2:45.16 |    142609    |   154999
       10  | 34:26.50 |  3:47.29 |    155000    |   172053
       11  | 38:14.04 |  5:36.68 |    172054    |   197321
       12  | 43:50.72 |  3:54.60 |    197322    |   214931
       13  | 47:45.57 |  4:28.54 |    214932    |   235085
       14  | 52:14.36 |  3:59.07 |    235086    |   253017
       15  | 56:13.43 |  3:47.17 |    253018    |   270059
       16  | 60:00.60 |  4:34.04 |    270060    |   290613
       17  | 64:34.64 |  4:15.20 |    290614    |   309758
       18  | 68:50.09 |  3:13.21 |    309759    |   324254
Range status and errors
Selected range
     Filename D:\Music\Swan Lee - The Complete Collection\CD2\Swan Lee - The Complete Collection CD2.wav
     Peak level 100.0 %
     Range quality 100.0 %
     Test CRC 7052F8D2
     Copy CRC 7052F8D2
     Copy OK
No errors occurred
AccurateRip summary
Track  1  accurately ripped (confidence 14)  [F0F6B54E]
Track  2  accurately ripped (confidence 14)  [7F61B815]
Track  3  accurately ripped (confidence 14)  [78DF0E50]
Track  4  accurately ripped (confidence 14)  [22EF9704]
Track  5  accurately ripped (confidence 14)  [2600B312]
Track  6  accurately ripped (confidence 14)  [0E4307A5]
Track  7  accurately ripped (confidence 14)  [F04A3A2A]
Track  8  accurately ripped (confidence 14)  [E0B11FF3]
Track  9  accurately ripped (confidence 14)  [807CF41D]
Track 10  accurately ripped (confidence 14)  [2F82539B]
Track 11  accurately ripped (confidence 14)  [2F8D4200]
Track 12  accurately ripped (confidence 14)  [0BEF1123]
Track 13  accurately ripped (confidence 14)  [8A85DA2C]
Track 14  accurately ripped (confidence 14)  [99ECFBD0]
Track 15  accurately ripped (confidence 14)  [09E9DD87]
Track 16  accurately ripped (confidence 14)  [8AC35B12]
Track 17  accurately ripped (confidence 14)  [2D8D29DC]
Track 18  accurately ripped (confidence 13)  [DDF960CB]
All tracks accurately ripped
End of status report
Правила, инструкции, FAQ!!!
Торрент  Добавлен [26 мар 2019, 20:49] Скачать торрент Магнет ссылка
Скачать торрент
[ Размер 19.98 КБ / Просмотров 5 ]

Статус
Проверен 
 
Размер  964.4 МБ
Приватный: Нет (DHT включён)
.torrent скачан  0
 


     Отправить личное сообщение
   
Страница 1 из 1
Показать сообщения за:  Поле сортировки  
Начать новую тему Ответить на тему


Сейчас этот форум просматривают: нет зарегистрированных пользователей и гости: 0


Вы не можете начинать темы
Вы не можете отвечать на сообщения
Вы не можете редактировать свои сообщения
Вы не можете удалять свои сообщения
Вы не можете добавлять вложения

Перейти:  
cron