Начать новую тему Ответить на тему
Статистика раздачи
Размер: 274.91 МБ | Добавлен: 26 мар 2019, 20:40 | Скачали: 0
Сидеров: 0  [0 байт/сек]    Личеров: 0  [0 байт/сек]
Пред. тема | След. тема 

Автор
Сообщение

СообщениеДобавлено: 26 мар 2019, 20:40 

Ответить с цитатой 

Superbus - Aéromusical (2002)
Жанр: Pop-Rock
Год выпуска диска: 2002
Производитель диска: France
Аудио кодек: APE
Тип рипа: image+.cue
Битрейт аудио: lossless
Продолжительность: 37:40
Трэклист:

01. Je reste encore
02. Superstar
03. Tchi-Cum-Bah
04. Le Soleil
05. Le Loup
06. Aéromusical
07. Something Wrong
08. Ennemie
09. A travers toi
10. Into the groove
11. Helping Hand
12. Sans Décrocher

Label: Mercury France, un label Universal Music
Exact Audio Copy V0.99 prebeta 4 from 23. January 2008
Отчёт EAC об извлечении, выполненном 22. апреля 2009, 18:35
Superbus / Aйromusical
Дисковод: PLEXTOR DVDR PX-800A Adapter: 1 ID: 0
Режим чтения : Достоверность
Использование точного потока : Да
Отключение кэша аудио : Да
Использование указателей C2 : Нет
Коррекция смещения при чтении : 48
Способность читать области Lead-in и Lead-out : Нет
Заполнение пропущенных сэмплов тишиной : Да
Удаление блоков с тишиной в начале и конце : Нет
При вычислениях CRC использовались нулевые сэмплы : Да
Интерфейс : Установленный внешний ASPI-интерфейс
Выходной формат : Пользовательский кодировщик
Выбранный битрейт : 128 kBit/s
Качество : Высокий
Добавление ID3-тэга : Да
Утилита сжатия : D:\Games\Exact Audio Copy\wapet.exe
Дополнительные параметры : %d -t "Artist=%a" -t "Title=%t" -t "Album=%g" -t "Year=%y" -t "Track=%n" -t "Genre=%m" "C:\Program Files (x86)\Monkey's Audio\MAC.exe" %s %d -c4000
TOC извлечённого CD
Трек | Старт | Длительность | Начальный сектор | Конечный сектор
---------------------------------------------------------------------
1 | 0:00.00 | 2:29.17 | 0 | 11191
2 | 2:29.17 | 3:14.60 | 11192 | 25801
3 | 5:44.02 | 2:23.39 | 25802 | 36565
4 | 8:07.41 | 3:30.12 | 36566 | 52327
5 | 11:37.53 | 3:19.19 | 52328 | 67271
6 | 14:56.72 | 2:23.15 | 67272 | 78011
7 | 17:20.12 | 3:41.49 | 78012 | 94635
8 | 21:01.61 | 2:45.46 | 94636 | 107056
9 | 23:47.32 | 4:08.33 | 107057 | 125689
10 | 27:55.65 | 2:51.44 | 125690 | 138558
11 | 30:47.34 | 3:01.58 | 138559 | 152191
12 | 33:49.17 | 3:51.15 | 152192 | 169531
Характеристики диапазона извлечения и сообщения об ошибках
Выбранный диапазон
Имя файла D:\Music\Современные\Superbus - Aйromusical.wav
Пиковый уровень 100.0 %
Качество диапазона 100.0 %
CRC теста 29278A87
CRC копии 29278A87
Копирование... OK
Ошибок не произошло
AccurateRip: сводка
Трек 1 нет в базе данных
Трек 2 нет в базе данных
Трек 3 нет в базе данных
Трек 4 нет в базе данных
Трек 5 нет в базе данных
Трек 6 нет в базе данных
Трек 7 нет в базе данных
Трек 8 нет в базе данных
Трек 9 нет в базе данных
Трек 10 нет в базе данных
Трек 11 нет в базе данных
Трек 12 нет в базе данных
Ни одного трека нет в базе AccurateRip
Конец отчёта
Правила, инструкции, FAQ!!!
Торрент  Добавлен [26 мар 2019, 20:40] Скачать торрент Магнет ссылка
Скачать торрент
[ Размер 11.43 КБ / Просмотров 0 ]

Статус
Проверен 
 
Размер  274.91 МБ
Приватный: Нет (DHT включён)
.torrent скачан  0
 


     Отправить личное сообщение
   
Страница 1 из 1
Показать сообщения за:  Поле сортировки  
Начать новую тему Ответить на тему


Сейчас этот форум просматривают: нет зарегистрированных пользователей и гости: 0


Вы не можете начинать темы
Вы не можете отвечать на сообщения
Вы не можете редактировать свои сообщения
Вы не можете удалять свои сообщения
Вы не можете добавлять вложения

Перейти:  
cron