Начать новую тему Ответить на тему
Статистика раздачи
Размер: 300.73 МБ | Добавлен: 26 мар 2019, 20:41 | Скачали: 0
Сидеров: 0  [0 байт/сек]    Личеров: 0  [0 байт/сек]
Пред. тема | След. тема 

Автор
Сообщение

СообщениеДобавлено: 26 мар 2019, 20:41 

Ответить с цитатой 

Superbus - Lova Lova (2009)
Жанр: Pop-Rock
Год выпуска диска: 2009
Производитель диска: France
Аудио кодек: APE
Тип рипа: image+.cue
Битрейт аудио: lossless
Продолжительность: 42'
Трэклист:

01. Nelly
02. Addictions
03. I Wanna Be U
04. Hello Hello
05. A La Verticale
06. Just Like The Old Days
07. Gogo Dance Show
08. London Town
09. Call Girl
10. Apprends Moi
11. Key Hole
12. Lova Lova

Label: Universal Music France
Exact Audio Copy V0.99 prebeta 4 from 23. January 2008
Отчёт EAC об извлечении, выполненном 22. апреля 2009, 19:19
Superbus / Lova Lova
Дисковод: PLEXTOR DVDR PX-800A Adapter: 1 ID: 0
Режим чтения : Достоверность
Использование точного потока : Да
Отключение кэша аудио : Да
Использование указателей C2 : Нет
Коррекция смещения при чтении : 48
Способность читать области Lead-in и Lead-out : Нет
Заполнение пропущенных сэмплов тишиной : Да
Удаление блоков с тишиной в начале и конце : Нет
При вычислениях CRC использовались нулевые сэмплы : Да
Интерфейс : Установленный внешний ASPI-интерфейс
Выходной формат : Пользовательский кодировщик
Выбранный битрейт : 128 kBit/s
Качество : Высокий
Добавление ID3-тэга : Да
Утилита сжатия : D:\Games\Exact Audio Copy\wapet.exe
Дополнительные параметры : %d -t "Artist=%a" -t "Title=%t" -t "Album=%g" -t "Year=%y" -t "Track=%n" -t "Genre=%m" "C:\Program Files (x86)\Monkey's Audio\MAC.exe" %s %d -c4000
TOC извлечённого CD
Трек | Старт | Длительность | Начальный сектор | Конечный сектор
---------------------------------------------------------------------
1 | 0:00.00 | 3:43.30 | 0 | 16754
2 | 3:43.30 | 3:57.39 | 16755 | 34568
3 | 7:40.69 | 3:35.43 | 34569 | 50736
4 | 11:16.37 | 2:57.35 | 50737 | 64046
5 | 14:13.72 | 3:12.29 | 64047 | 78475
6 | 17:26.26 | 3:39.70 | 78476 | 94970
7 | 21:06.21 | 2:50.34 | 94971 | 107754
8 | 23:56.55 | 3:37.54 | 107755 | 124083
9 | 27:34.34 | 3:25.02 | 124084 | 139460
10 | 30:59.36 | 4:09.26 | 139461 | 158161
11 | 35:08.62 | 3:29.46 | 158162 | 173882
12 | 38:38.33 | 3:20.60 | 173883 | 188942
13 | 44:31.18 | 6:38.60 | 200343 | 230252
Характеристики диапазона извлечения и сообщения об ошибках
Выбранный диапазон
Имя файла D:\Music\Современные\Superbus - Lova Lova.wav
Пиковый уровень 100.0 %
Качество диапазона 99.9 %
CRC теста 9925D8D0
CRC копии 9925D8D0
Копирование... OK
Ошибок не произошло
AccurateRip: сводка
Трек 1 нет в базе данных
Трек 2 нет в базе данных
Трек 3 нет в базе данных
Трек 4 нет в базе данных
Трек 5 нет в базе данных
Трек 6 нет в базе данных
Трек 7 нет в базе данных
Трек 8 нет в базе данных
Трек 9 нет в базе данных
Трек 10 нет в базе данных
Трек 11 нет в базе данных
Трек 12 нет в базе данных
Ни одного трека нет в базе AccurateRip
Конец отчёта
Правила, инструкции, FAQ!!!
Торрент  Добавлен [26 мар 2019, 20:41] Скачать торрент Магнет ссылка
Скачать торрент
[ Размер 12.42 КБ / Просмотров 0 ]

Статус
Проверен 
 
Размер  300.73 МБ
Приватный: Нет (DHT включён)
.torrent скачан  0
 


     Отправить личное сообщение
   
Страница 1 из 1
Показать сообщения за:  Поле сортировки  
Начать новую тему Ответить на тему


Сейчас этот форум просматривают: нет зарегистрированных пользователей и гости: 0


Вы не можете начинать темы
Вы не можете отвечать на сообщения
Вы не можете редактировать свои сообщения
Вы не можете удалять свои сообщения
Вы не можете добавлять вложения

Перейти:  
cron