Начать новую тему Ответить на тему
Статистика раздачи
Размер: 445.02 МБ | Добавлен: 26 мар 2019, 19:45 | Скачали: 1
Сидеров: 3  [0 байт/сек]    Личеров: 1  [0 байт/сек]
Пред. тема | След. тема 

Автор
Сообщение

СообщениеДобавлено: 26 мар 2019, 19:45 

Ответить с цитатой 

Sunrise Avenue / On The Way To Wonderland
Жанр: Pop Rock
Страна-производитель диска: Russia
Год издания: 2006
Издатель (лейбл): SBA/GALA RECORDS INC. по лицензии EMI MUSIC
Номер по каталогу: 50999 5013782 4
Страна: FINLAND
Аудиокодек: FLAC (*.flac)
Тип рипа: tracks+.cue
Битрейт аудио: lossless
Продолжительность: 00:58:40
Источник (релизер): VasilyXTasy
Наличие сканов в содержимом раздачи: да
Треклист:
01. Choose To Be Me
02. Forever Yours
03. All Because Of You
04. Fairytale Gone Bad
05. Diamonds
06. Heal Me
07. It Ain't The Way
08. Make It Go Away
09. Destiny
10. Sunny Day
11. Only
12. Into The Blue
13. Romeo
14. Fight 'Til Dying
15. Wonderland
Код:
Exact Audio Copy V0.99 prebeta 5 from 4. May 2009
Отчёт EAC об извлечении, выполненном 24. апреля 2011, 22:39
Sunrise Avenue / On The Way To Wonderland
Дисковод: HL-DT-STBD-RE  UH10LS20   Adapter: 3  ID: 0
Режим чтения                 : Достоверность
Использование точного потока : Да
Отключение кэша аудио        : Да
Использование указателей C2  : Нет
Коррекция смещения при чтении                     : 667
Способность читать области Lead-in и Lead-out     : Нет
Заполнение пропущенных сэмплов тишиной            : Да
Удаление блоков с тишиной в начале и конце        : Нет
При вычислениях CRC использовались нулевые сэмплы : Да
Интерфейс                                         : Встроенный Win32-интерфейс для Win NT/2000
Обработка зазоров                                 : Добавлено к предыдущему треку
Выходной формат          : Пользовательский кодировщик
Выбранный битрейт        : 768 kBit/s
Качество                 : Высокий
Добавление ID3-тэга      : Нет
Утилита сжатия           : C:\Program Files\Exact Audio Copy\FLAC\FLAC.EXE
Дополнительные параметры : -6 -V -T "ARTIST=%a" -T "TITLE=%t" -T "ALBUM=%g" -T "DATE=%y" -T "TRACKNUMBER=%n" -T "GENRE=%m" -T "COMMENT=%e" %s -o %d
TOC извлечённого CD
     Трек |   Старт  | Длительность | Начальный сектор | Конечный сектор
    ---------------------------------------------------------------------
       1  |  0:00.00 |    4:11.19   |           0      |      18843
       2  |  4:11.19 |    3:22.03   |       18844      |      33996
       3  |  7:33.22 |    3:48.54   |       33997      |      51150
       4  | 11:22.01 |    3:33.10   |       51151      |      67135
       5  | 14:55.11 |    3:14.09   |       67136      |      81694
       6  | 18:09.20 |    4:22.42   |       81695      |     101386
       7  | 22:31.62 |    3:23.40   |      101387      |     116651
       8  | 25:55.27 |    3:38.40   |      116652      |     133041
       9  | 29:33.67 |    2:58.46   |      133042      |     146437
      10  | 32:32.38 |    3:53.32   |      146438      |     163944
      11  | 36:25.70 |    3:46.42   |      163945      |     180936
      12  | 40:12.37 |    5:29.56   |      180937      |     205667
      13  | 45:42.18 |    4:03.04   |      205668      |     223896
      14  | 49:45.22 |    3:16.22   |      223897      |     238618
      15  | 53:01.44 |    5:38.65   |      238619      |     264033
Трек  1
     Имя файла E:\rip\Sunrise Avenue - On The Way To Wonderland\01. Sunrise Avenue - Choose To Be Me.wav
     Длина предзазора  0:00:02.00
     Пиковый уровень 99.8 %
     Качество трека 100.0 %
     CRC теста 967921A9
     CRC копии 967921A9
     Точное извлечение (достоверность 10)  [AF7887D5]
     Копирование... OK
Трек  2
     Имя файла E:\rip\Sunrise Avenue - On The Way To Wonderland\02. Sunrise Avenue - Forever Yours.wav
     Пиковый уровень 99.8 %
     Качество трека 100.0 %
     CRC теста A271203D
     CRC копии A271203D
     Точное извлечение (достоверность 11)  [A8C4855D]
     Копирование... OK
Трек  3
     Имя файла E:\rip\Sunrise Avenue - On The Way To Wonderland\03. Sunrise Avenue - All Because Of You.wav
     Пиковый уровень 99.8 %
     Качество трека 100.0 %
     CRC теста F85EC5B8
     CRC копии F85EC5B8
     Точное извлечение (достоверность 10)  [2976A422]
     Копирование... OK
Трек  4
     Имя файла E:\rip\Sunrise Avenue - On The Way To Wonderland\04. Sunrise Avenue - Fairytale Gone Bad.wav
     Пиковый уровень 99.8 %
     Качество трека 100.0 %
     CRC теста 9D396525
     CRC копии 9D396525
     Точное извлечение (достоверность 10)  [E2934F3D]
     Копирование... OK
Трек  5
     Имя файла E:\rip\Sunrise Avenue - On The Way To Wonderland\05. Sunrise Avenue - Diamonds.wav
     Пиковый уровень 99.8 %
     Качество трека 100.0 %
     CRC теста DF1C0CCC
     CRC копии DF1C0CCC
     Точное извлечение (достоверность 10)  [60708422]
     Копирование... OK
Трек  6
     Имя файла E:\rip\Sunrise Avenue - On The Way To Wonderland\06. Sunrise Avenue - Heal Me.wav
     Пиковый уровень 99.8 %
     Качество трека 100.0 %
     CRC теста B0DE2762
     CRC копии B0DE2762
     Точное извлечение (достоверность 10)  [8430CAA0]
     Копирование... OK
Трек  7
     Имя файла E:\rip\Sunrise Avenue - On The Way To Wonderland\07. Sunrise Avenue - It Ain't The Way.wav
     Пиковый уровень 99.8 %
     Качество трека 99.9 %
     CRC теста D4DFC1C2
     CRC копии D4DFC1C2
     Точное извлечение (достоверность 10)  [05F25648]
     Копирование... OK
Трек  8
     Имя файла E:\rip\Sunrise Avenue - On The Way To Wonderland\08. Sunrise Avenue - Make It Go Away.wav
     Пиковый уровень 99.8 %
     Качество трека 100.0 %
     CRC теста 648869CC
     CRC копии 648869CC
     Точное извлечение (достоверность 10)  [680988A4]
     Копирование... OK
Трек  9
     Имя файла E:\rip\Sunrise Avenue - On The Way To Wonderland\09. Sunrise Avenue - Destiny.wav
     Пиковый уровень 99.8 %
     Качество трека 100.0 %
     CRC теста 16EFB7A9
     CRC копии 16EFB7A9
     Точное извлечение (достоверность 10)  [E8A55FBE]
     Копирование... OK
Трек 10
     Имя файла E:\rip\Sunrise Avenue - On The Way To Wonderland\10. Sunrise Avenue - Sunny Day.wav
     Пиковый уровень 99.8 %
     Качество трека 99.9 %
     CRC теста 87AF742D
     CRC копии 87AF742D
     Точное извлечение (достоверность 10)  [2FC387E9]
     Копирование... OK
Трек 11
     Имя файла E:\rip\Sunrise Avenue - On The Way To Wonderland\11. Sunrise Avenue - Only.wav
     Пиковый уровень 99.8 %
     Качество трека 100.0 %
     CRC теста 9B79AA2E
     CRC копии 9B79AA2E
     Точное извлечение (достоверность 10)  [BF0B84E5]
     Копирование... OK
Трек 12
     Имя файла E:\rip\Sunrise Avenue - On The Way To Wonderland\12. Sunrise Avenue - Into The Blue.wav
     Пиковый уровень 99.8 %
     Качество трека 99.9 %
     CRC теста D323AC7A
     CRC копии D323AC7A
     Точное извлечение (достоверность 10)  [5E7FFE25]
     Копирование... OK
Трек 13
     Имя файла E:\rip\Sunrise Avenue - On The Way To Wonderland\13. Sunrise Avenue - Romeo.wav
     Пиковый уровень 99.8 %
     Качество трека 99.9 %
     CRC теста 85A373A1
     CRC копии 85A373A1
     Точное извлечение (достоверность 10)  [13E2C182]
     Копирование... OK
Трек 14
     Имя файла E:\rip\Sunrise Avenue - On The Way To Wonderland\14. Sunrise Avenue - Fight 'Til Dying.wav
     Пиковый уровень 99.8 %
     Качество трека 100.0 %
     CRC теста DD4633AF
     CRC копии DD4633AF
     Точное извлечение (достоверность 10)  [7B8DA706]
     Копирование... OK
Трек 15
     Имя файла E:\rip\Sunrise Avenue - On The Way To Wonderland\15. Sunrise Avenue - Wonderland.wav
     Пиковый уровень 99.8 %
     Качество трека 100.0 %
     CRC теста ABF1B8B5
     CRC копии ABF1B8B5
     Точное извлечение (достоверность 10)  [757580E6]
     Копирование... OK
Все треки извлечены точно
Ошибок не произошло
Конец отчёта
Код:
REM GENRE Pop
REM DATE 2006
REM DISCID EB0DC00F
REM COMMENT "ExactAudioCopy v0.99pb5"
PERFORMER "Sunrise Avenue"
TITLE "On The Way To Wonderland"
FILE "01. Sunrise Avenue - Choose To Be Me.wav" WAVE
  TRACK 01 AUDIO
    TITLE "Choose To Be Me"
    PERFORMER "Sunrise Avenue"
    FLAGS DCP
    INDEX 01 00:00:00
FILE "02. Sunrise Avenue - Forever Yours.wav" WAVE
  TRACK 02 AUDIO
    TITLE "Forever Yours"
    PERFORMER "Sunrise Avenue"
    FLAGS DCP
    INDEX 01 00:00:00
FILE "03. Sunrise Avenue - All Because Of You.wav" WAVE
  TRACK 03 AUDIO
    TITLE "All Because Of You"
    PERFORMER "Sunrise Avenue"
    FLAGS DCP
    INDEX 01 00:00:00
FILE "04. Sunrise Avenue - Fairytale Gone Bad.wav" WAVE
  TRACK 04 AUDIO
    TITLE "Fairytale Gone Bad"
    PERFORMER "Sunrise Avenue"
    FLAGS DCP
    INDEX 01 00:00:00
FILE "05. Sunrise Avenue - Diamonds.wav" WAVE
  TRACK 05 AUDIO
    TITLE "Diamonds"
    PERFORMER "Sunrise Avenue"
    FLAGS DCP
    INDEX 01 00:00:00
FILE "06. Sunrise Avenue - Heal Me.wav" WAVE
  TRACK 06 AUDIO
    TITLE "Heal Me"
    PERFORMER "Sunrise Avenue"
    FLAGS DCP
    INDEX 01 00:00:00
FILE "07. Sunrise Avenue - It Ain't The Way.wav" WAVE
  TRACK 07 AUDIO
    TITLE "It Ain't The Way"
    PERFORMER "Sunrise Avenue"
    FLAGS DCP
    INDEX 01 00:00:00
FILE "08. Sunrise Avenue - Make It Go Away.wav" WAVE
  TRACK 08 AUDIO
    TITLE "Make It Go Away"
    PERFORMER "Sunrise Avenue"
    FLAGS DCP
    INDEX 01 00:00:00
FILE "09. Sunrise Avenue - Destiny.wav" WAVE
  TRACK 09 AUDIO
    TITLE "Destiny"
    PERFORMER "Sunrise Avenue"
    FLAGS DCP
    INDEX 01 00:00:00
FILE "10. Sunrise Avenue - Sunny Day.wav" WAVE
  TRACK 10 AUDIO
    TITLE "Sunny Day"
    PERFORMER "Sunrise Avenue"
    FLAGS DCP
    INDEX 01 00:00:00
FILE "11. Sunrise Avenue - Only.wav" WAVE
  TRACK 11 AUDIO
    TITLE "Only"
    PERFORMER "Sunrise Avenue"
    FLAGS DCP
    INDEX 01 00:00:00
FILE "12. Sunrise Avenue - Into The Blue.wav" WAVE
  TRACK 12 AUDIO
    TITLE "Into The Blue"
    PERFORMER "Sunrise Avenue"
    FLAGS DCP
    INDEX 01 00:00:00
FILE "13. Sunrise Avenue - Romeo.wav" WAVE
  TRACK 13 AUDIO
    TITLE "Romeo"
    PERFORMER "Sunrise Avenue"
    FLAGS DCP
    INDEX 01 00:00:00
FILE "14. Sunrise Avenue - Fight 'Til Dying.wav" WAVE
  TRACK 14 AUDIO
    TITLE "Fight 'Til Dying"
    PERFORMER "Sunrise Avenue"
    FLAGS DCP
    INDEX 01 00:00:00
FILE "15. Sunrise Avenue - Wonderland.wav" WAVE
  TRACK 15 AUDIO
    TITLE "Wonderland"
    PERFORMER "Sunrise Avenue"
    FLAGS DCP
    INDEX 01 00:00:00
Правила, инструкции, FAQ!!!
Торрент  Добавлен [26 мар 2019, 19:45] Скачать торрент Магнет ссылка
Скачать торрент
[ Размер 19.64 КБ / Просмотров 50 ]

Статус
Проверен 
 
Размер  445.02 МБ
Приватный: Нет (DHT включён)
.torrent скачан  1
 


     Отправить личное сообщение
   
Страница 1 из 1
Показать сообщения за:  Поле сортировки  
Начать новую тему Ответить на тему


Сейчас этот форум просматривают: нет зарегистрированных пользователей и гости: 1


Вы не можете начинать темы
Вы не можете отвечать на сообщения
Вы не можете редактировать свои сообщения
Вы не можете удалять свои сообщения
Вы не можете добавлять вложения

Перейти:  
cron