Начать новую тему Ответить на тему
Статистика раздачи
Размер: 359.39 МБ | Добавлен: 26 мар 2019, 20:03 | Скачали: 0
Сидеров: 0  [0 байт/сек]    Личеров: 0  [0 байт/сек]
Пред. тема | След. тема 

Автор
Сообщение

СообщениеДобавлено: 26 мар 2019, 20:03 

Ответить с цитатой 

Sunrise Avenue - Out Of Style

Жанр: Pop-rock
Страна-производитель диска: EU
Год издания диска: 2011
Издатель (лейбл): Universal Music Group
Номер по каталогу: 2766142
Страна: Finland
Аудио кодек: APE (*.ape)
Тип рипа: image+.cue
Битрейт аудио: lossless
Продолжительность: 49:17
Источник (релизер): avaxhome (rd)
Наличие сканов в содержимом раздачи: да
01. Hollywood Hills (03:30)
02. Damn Silence (04:06)
03. Somebody Help Me (04:22)
04. I Don't Dance (03:24)
05. I Gotta Go (03:10)
06. Stormy End (04:04)
07. Kiss Goodbye (04:25)
08. Sex & Cigarettes (03:15)
09. The Right One (04:21)
10. Out Of Tune (03:43)
11. Angels On A Rampage (04:16)
12. Sweet Symphony (06:35)
Код:
Exact Audio Copy V0.99 prebeta 5 from 4. May 2009
EAC extraction logfile from 9. April 2011, 21:07
Sunrise Avenue / Out Of Style
Used drive  : MATSHITABD-CMB UJ242AS   Adapter: 0  ID: 1
Read mode               : Secure
Utilize accurate stream : Yes
Defeat audio cache      : Yes
Make use of C2 pointers : No
Read offset correction                      : 103
Overread into Lead-In and Lead-Out          : No
Fill up missing offset samples with silence : Yes
Delete leading and trailing silent blocks   : No
Null samples used in CRC calculations       : Yes
Used interface                              : Native Win32 interface for Win NT & 2000
Used output format              : Monkey's Audio Lossless Encoder
Selected bitrate                : Normal Lossless Compression
Quality                         : High
Add ID3 tag                     : Yes
Command line compressor         : C:\Program Files (x86)\Exact Audio Copy\MAC.exe
TOC of the extracted CD
     Track |   Start  |  Length  | Start sector | End sector
    ---------------------------------------------------------
        1  |  0:00.00 |  3:30.48 |         0    |    15797
        2  |  3:30.48 |  4:06.13 |     15798    |    34260
        3  |  7:36.61 |  4:22.24 |     34261    |    53934
        4  | 11:59.10 |  3:24.65 |     53935    |    69299
        5  | 15:24.00 |  3:10.64 |     69300    |    83613
        6  | 18:34.64 |  4:04.51 |     83614    |   101964
        7  | 22:39.40 |  4:25.20 |    101965    |   121859
        8  | 27:04.60 |  3:15.13 |    121860    |   136497
        9  | 30:19.73 |  4:21.55 |    136498    |   156127
       10  | 34:41.53 |  3:43.72 |    156128    |   172924
       11  | 38:25.50 |  4:16.15 |    172925    |   192139
       12  | 42:41.65 |  6:35.28 |    192140    |   221792
Range status and errors
Selected range
     Filename C:\EACrip\Sunrise Avenue - Out Of Style.wav
     Peak level 100.0 %
     Range quality 100.0 %
     Test CRC B72C17EF
     Copy CRC B72C17EF
     Copy OK
No errors occurred
AccurateRip summary
Track  1  not present in database
Track  2  not present in database
Track  3  not present in database
Track  4  not present in database
Track  5  not present in database
Track  6  not present in database
Track  7  not present in database
Track  8  not present in database
Track  9  not present in database
Track 10  not present in database
Track 11  not present in database
Track 12  not present in database
None of the tracks are present in the AccurateRip database
End of status report
Правила, инструкции, FAQ!!!
Торрент  Добавлен [26 мар 2019, 20:03] Скачать торрент Магнет ссылка
Скачать торрент
[ Размер 15.39 КБ / Просмотров 2 ]

Статус
Проверен 
 
Размер  359.39 МБ
Приватный: Нет (DHT включён)
.torrent скачан  0
 


     Отправить личное сообщение
   
Страница 1 из 1
Показать сообщения за:  Поле сортировки  
Начать новую тему Ответить на тему


Сейчас этот форум просматривают: нет зарегистрированных пользователей и гости: 0


Вы не можете начинать темы
Вы не можете отвечать на сообщения
Вы не можете редактировать свои сообщения
Вы не можете удалять свои сообщения
Вы не можете добавлять вложения

Перейти:  
cron