Начать новую тему Ответить на тему
Статистика раздачи
Размер: 184.23 МБ | Добавлен: 26 мар 2019, 19:45 | Скачали: 0
Сидеров: 0  [0 байт/сек]    Личеров: 0  [0 байт/сек]
Пред. тема | След. тема 

Автор
Сообщение

СообщениеДобавлено: 26 мар 2019, 19:45 

Ответить с цитатой 

Sunrise Avenue

Choose To Be Me
Жанр: Pop Rock
Год издания диска: 2008
Страна: Finland
.
Аудиокодек: FLAC (*.flac)
Тип рипа: tracks+.cue
Битрейт аудио: lossless
Продолжительность: 00:25:51
Источник (релизер): what.cd (winstone)
Наличие сканов в содержимом раздачи: нет
Треклист:
01. Choose To Be Me (Remastered Album Version) (04:09)
02. Choose To Be Me (Radio Edit) (03:50)
03. Choose To Be Me (Instrumental Version) (04:11)
04. Choose To Be Me (Live 2007) (05:11)
05. Choose To Be Me (L.A.O.S. Smile On Mix) (04:14)
06. Fail Again (Demo Version) (04:13)
Код:
Exact Audio Copy V1.0 beta 3 from 29. August 2011
EAC extraction logfile from 29. November 2012, 15:24
Sunrise Ave / Choose To Be Me
Used drive  : HL-DT-STDVD-RAM GH22NS30   Adapter: 1  ID: 0
Read mode               : Secure
Utilize accurate stream : Yes
Defeat audio cache      : Yes
Make use of C2 pointers : No
Read offset correction                      : 102
Overread into Lead-In and Lead-Out          : No
Fill up missing offset samples with silence : Yes
Delete leading and trailing silent blocks   : No
Null samples used in CRC calculations       : Yes
Used interface                              : Native Win32 interface for Win NT & 2000
Gap handling                                : Appended to previous track
Used output format              : User Defined Encoder
Selected bitrate                : 1024 kBit/s
Quality                         : High
Add ID3 tag                     : No
Command line compressor         : C:\Program Files (x86)\Exact Audio Copy\Flac\flac.exe
Additional command line options : -8 -V -T "ARTIST=%artist%" -T "TITLE=%title%" -T "ALBUM=%albumtitle%" -T "DATE=%year%" -T "TRACKNUMBER=%tracknr%" -T "GENRE=%genre%" -T "PERFORMER=%albuminterpret%" -T "COMPOSER=%composer%" %haslyrics%--tag-from-file=LYRICS="%lyricsfile%"%haslyrics% -T "ALBUMARTIST=%albumartist%" -T "DISCNUMBER=%cdnumber%" -T "TOTALDISCS=%totalcds%" -T "TOTALTRACKS=%numtracks%" -T "COMMENT=%comment%" %source% -o %dest%
TOC of the extracted CD
     Track |   Start  |  Length  | Start sector | End sector
    ---------------------------------------------------------
        1  |  0:00.00 |  4:09.33 |         0    |    18707
        2  |  4:09.33 |  3:50.57 |     18708    |    36014
        3  |  8:00.15 |  4:11.66 |     36015    |    54905
        4  | 12:12.06 |  5:11.33 |     54906    |    78263
        5  | 17:23.39 |  4:14.60 |     78264    |    97373
        6  | 21:38.24 |  4:13.18 |     97374    |   116366
Track  1
     Filename C:\EAC rips\Sunrise Ave - Choose To Be Me (2008) [FLAC]\01 - Choose To Be Me (Remastered Album Version).wav
     Pre-gap length  0:00:02.00
     Peak level 100.0 %
     Extraction speed 1.7 X
     Track quality 100.0 %
     Test CRC 633443D4
     Copy CRC 633443D4
     Track not present in AccurateRip database
     Copy OK
Track  2
     Filename C:\EAC rips\Sunrise Ave - Choose To Be Me (2008) [FLAC]\02 - Choose To Be Me(Radio Edit).wav
     Pre-gap length  0:00:02.08
     Peak level 100.0 %
     Extraction speed 1.7 X
     Track quality 99.9 %
     Test CRC B4273867
     Copy CRC B4273867
     Track not present in AccurateRip database
     Copy OK
Track  3
     Filename C:\EAC rips\Sunrise Ave - Choose To Be Me (2008) [FLAC]\03 - Choose To Be Me (Insrumental Version).wav
     Pre-gap length  0:00:02.88
     Peak level 100.0 %
     Extraction speed 2.1 X
     Track quality 100.0 %
     Test CRC 2EDBACC8
     Copy CRC 2EDBACC8
     Track not present in AccurateRip database
     Copy OK
Track  4
     Filename C:\EAC rips\Sunrise Ave - Choose To Be Me (2008) [FLAC]\04 - Choose To Be Me (Live 2007).wav
     Pre-gap length  0:00:04.52
     Peak level 99.7 %
     Extraction speed 2.1 X
     Track quality 99.9 %
     Test CRC 83F755D2
     Copy CRC 83F755D2
     Track not present in AccurateRip database
     Copy OK
Track  5
     Filename C:\EAC rips\Sunrise Ave - Choose To Be Me (2008) [FLAC]\05 - Choose To Be Me (L.A.O.S. Smile On Mix).wav
     Pre-gap length  0:00:01.80
     Peak level 99.7 %
     Extraction speed 2.4 X
     Track quality 100.0 %
     Test CRC AE11E741
     Copy CRC AE11E741
     Track not present in AccurateRip database
     Copy OK
Track  6
     Filename C:\EAC rips\Sunrise Ave - Choose To Be Me (2008) [FLAC]\06 - Fail Again (Demo Version).wav
     Pre-gap length  0:00:02.80
     Peak level 85.8 %
     Extraction speed 2.5 X
     Track quality 100.0 %
     Test CRC 83583463
     Copy CRC 83583463
     Track not present in AccurateRip database
     Copy OK
None of the tracks are present in the AccurateRip database
No errors occurred
End of status report
---- CUETools DB Plugin V2.1.3
[CTDB TOCID: oh5vjD7OuZliPVHpbB7bKtuFweA-] disk not present in database, Submit result: oh5vjD7OuZliPVHpbB7bKtuFweA- has been uploaded
==== Log checksum 8C1E90FF0B54A31E7CAB2A402EF9F8AD74F39FB93819CE2C36B659743858DADA ====
Код:
Started at: воскресенье, 30. 12. 2012. - 18:46.50
6 files found
1 -===- R:\Torrents\Sunrise Ave - 2008 - Choose To Be Me\01 - Choose To Be Me (Remastered Album Version).flac
  Extracted successfully
  Conclusion: this track is CDDA with probability 99%
  Tempfile successfully deleted.
2 -===- R:\Torrents\Sunrise Ave - 2008 - Choose To Be Me\02 - Choose To Be Me(Radio Edit).flac
  Extracted successfully
  Conclusion: this track is CDDA with probability 100%
  Tempfile successfully deleted.
3 -===- R:\Torrents\Sunrise Ave - 2008 - Choose To Be Me\03 - Choose To Be Me (Insrumental Version).flac
  Extracted successfully
  Conclusion: this track is CDDA with probability 100%
  Tempfile successfully deleted.
4 -===- R:\Torrents\Sunrise Ave - 2008 - Choose To Be Me\04 - Choose To Be Me (Live 2007).flac
  Extracted successfully
  Conclusion: this track is CDDA with probability 100%
  Tempfile successfully deleted.
5 -===- R:\Torrents\Sunrise Ave - 2008 - Choose To Be Me\05 - Choose To Be Me (L.A.O.S. Smile On Mix).flac
  Extracted successfully
  Conclusion: this track is CDDA with probability 100%
  Tempfile successfully deleted.
6 -===- R:\Torrents\Sunrise Ave - 2008 - Choose To Be Me\06 - Fail Again (Demo Version).flac
  Extracted successfully
  Conclusion: this track is CDDA with probability 100%
  Tempfile successfully deleted.
Finished at: воскресенье, 30. 12. 2012. - 18:48.49 (operation time: 0:01.59)
Код:
REM GENRE Pop
REM DATE 2008
REM DISCID 34060F06
REM COMMENT "ExactAudioCopy v1.0b3"
FILE "01 - Choose To Be Me (Remastered Album Version).wav" WAVE
  TRACK 01 AUDIO
    INDEX 01 00:00:00
  TRACK 02 AUDIO
    INDEX 00 04:07:27
FILE "02 - Choose To Be Me(Radio Edit).wav" WAVE
    INDEX 01 00:00:00
  TRACK 03 AUDIO
    INDEX 00 03:47:66
FILE "03 - Choose To Be Me (Insrumental Version).wav" WAVE
    INDEX 01 00:00:00
  TRACK 04 AUDIO
    INDEX 00 04:07:27
FILE "04 - Choose To Be Me (Live 2007).wav" WAVE
    INDEX 01 00:00:00
  TRACK 05 AUDIO
    INDEX 00 05:09:48
FILE "05 - Choose To Be Me (L.A.O.S. Smile On Mix).wav" WAVE
    INDEX 01 00:00:00
  TRACK 06 AUDIO
    INDEX 00 04:12:00
FILE "06 - Fail Again (Demo Version).wav" WAVE
    INDEX 01 00:00:00
Правила, инструкции, FAQ!!!
Торрент  Добавлен [26 мар 2019, 19:45] Скачать торрент Магнет ссылка
Скачать торрент
[ Размер 15.49 КБ / Просмотров 0 ]

Статус
Проверен 
 
Размер  184.23 МБ
Приватный: Нет (DHT включён)
.torrent скачан  0
 


     Отправить личное сообщение
   
Страница 1 из 1
Показать сообщения за:  Поле сортировки  
Начать новую тему Ответить на тему


Сейчас этот форум просматривают: нет зарегистрированных пользователей и гости: 0


Вы не можете начинать темы
Вы не можете отвечать на сообщения
Вы не можете редактировать свои сообщения
Вы не можете удалять свои сообщения
Вы не можете добавлять вложения

Перейти:  
cron