Начать новую тему Ответить на тему
Статистика раздачи
Размер: 334.98 МБ | Добавлен: 13 июл 2020, 05:29 | Скачали: 0
Сидеров: 11  [0 байт/сек]    Личеров: 3  [0 байт/сек]
Пред. тема | След. тема 

Автор
Сообщение

СообщениеДобавлено: 13 июл 2020, 05:29 

Ответить с цитатой 

Sting ‎- The Dream Of The Blue Turtles


Жанр: Pop - Rock
Страна-производитель диска: Japan/USA
Год издания диска: 1985
Лейбл: A&M Records
Номер по каталогу: CD 3750
Страна исполнителя: UK
Аудио кодек: FLAC (*.flac)
Тип рипа: image+.cue
Битрейт аудио: lossless
Продолжительность: 41:41
Источник: dafnaplus
Наличие сканов в содержимом раздачи: да, dpi 600
Трэклист:
01. If You Love Somebody Set Them Free 4:16
02. Love Is The Seventh Wave 3:32
03. Russians 3:58
04. Children's Crusade 5:03
05. Shadows In The Rain 4:50
06. We Work The Black Seam 5:43
07. Consider Me Gone 4:19
08. The Dream Of The Blue Turtles 1:18
09. Moon Over Bourbon Street 4:00
10. Fortress Around Your Heart 4:41

Код:
Exact Audio Copy V1.3 from 2. September 2016
EAC extraction logfile from 30. January 2020, 22:27
Sting / The Dream Of The Blue Turtles (CD 3750)
Used drive  : ASUS    DRW-24D5MT   Adapter: 1  ID: 0
Read mode               : Secure
Utilize accurate stream : Yes
Defeat audio cache      : Yes
Make use of C2 pointers : No
Read offset correction                      : 6
Overread into Lead-In and Lead-Out          : No
Fill up missing offset samples with silence : Yes
Delete leading and trailing silent blocks   : No
Null samples used in CRC calculations       : Yes
Used interface                              : Native Win32 interface for Win NT & 2000
Used output format              : User Defined Encoder
Selected bitrate                : 768 kBit/s
Quality                         : High
Add ID3 tag                     : No
Command line compressor         : C:\Program Files (x86)\Exact Audio Copy\Flac\flac.exe
Additional command line options : -V -8 -T "Genre=%genre%" -T "Artist=%artist%" -T "Title=%title%" -T "Album=%albumtitle%" -T "Date=%year%" -T "Tracknumber=%tracknr%" -T "Comment=%comment%" %source%
TOC of the extracted CD
     Track |   Start  |  Length  | Start sector | End sector
    ---------------------------------------------------------
        1  |  0:00.00 |  4:16.18 |         0    |    19217
        2  |  4:16.18 |  3:32.27 |     19218    |    35144
        3  |  7:48.45 |  3:58.20 |     35145    |    53014
        4  | 11:46.65 |  5:02.65 |     53015    |    75729
        5  | 16:49.55 |  4:49.68 |     75730    |    97472
        6  | 21:39.48 |  5:42.50 |     97473    |   123172
        7  | 27:22.23 |  4:19.00 |    123173    |   142597
        8  | 31:41.23 |  1:18.37 |    142598    |   148484
        9  | 32:59.60 |  4:00.00 |    148485    |   166484
       10  | 36:59.60 |  4:41.13 |    166485    |   187572
Range status and errors
Selected range
     Filename I:\dafnaplus\Sting ‎- The Dream Of The Blue Turtles\Sting - The Dream Of The Blue Turtles (CD 3750).wav
     Peak level 100.0 %
     Extraction speed 6.6 X
     Range quality 99.9 %
     Test CRC 0510A6CB
     Copy CRC 0510A6CB
     Copy OK
No errors occurred
AccurateRip summary
Track  1  accurately ripped (confidence 45)  [DA719CEE]  (AR v2)
Track  2  accurately ripped (confidence 48)  [6A2243CD]  (AR v2)
Track  3  accurately ripped (confidence 47)  [7C78CD93]  (AR v2)
Track  4  accurately ripped (confidence 46)  [F6810DB1]  (AR v2)
Track  5  accurately ripped (confidence 48)  [0CFEF4D1]  (AR v2)
Track  6  accurately ripped (confidence 48)  [05DC5428]  (AR v2)
Track  7  accurately ripped (confidence 48)  [46E1E8BA]  (AR v2)
Track  8  accurately ripped (confidence 47)  [7F69EA5D]  (AR v2)
Track  9  accurately ripped (confidence 47)  [4D751F79]  (AR v2)
Track 10  accurately ripped (confidence 47)  [286B3961]  (AR v2)
All tracks accurately ripped
End of status report
---- CUETools DB Plugin V2.1.6
[CTDB TOCID: JOvqlyYg14FVmnbiWXXnrynKbbw-] found
Submit result: JOvqlyYg14FVmnbiWXXnrynKbbw- has been confirmed
Track | CTDB Status
  1   | (90/92) Accurately ripped
  2   | (91/92) Accurately ripped
  3   | (91/92) Accurately ripped
  4   | (89/92) Accurately ripped
  5   | (91/92) Accurately ripped
  6   | (91/92) Accurately ripped
  7   | (90/92) Accurately ripped
  8   | (92/92) Accurately ripped
  9   | (90/92) Accurately ripped
 10   | (89/92) Accurately ripped
==== Log checksum 607F9248FC6AD44A2AC85AD237B0CFAFEBCD2B148ED3A97B6BB52686B45352BD ====
Код:
REM GENRE Rock
REM DATE 1985
REM DISCID 6909C40A
REM COMMENT "ExactAudioCopy v1.3"
PERFORMER "Sting"
TITLE "The Dream Of The Blue Turtles (CD 3750)"
REM COMPOSER ""
FILE "Sting - The Dream Of The Blue Turtles (CD 3750).flac" WAVE
  TRACK 01 AUDIO
    TITLE "If You Love Somebody Set Them Free"
    PERFORMER "Sting"
    REM COMPOSER ""
    INDEX 01 00:00:00
  TRACK 02 AUDIO
    TITLE "Love Is The Seventh Wave"
    PERFORMER "Sting"
    REM COMPOSER ""
    INDEX 00 04:14:10
    INDEX 01 04:16:18
  TRACK 03 AUDIO
    TITLE "Russians"
    PERFORMER "Sting"
    REM COMPOSER ""
    INDEX 00 07:46:50
    INDEX 01 07:48:45
  TRACK 04 AUDIO
    TITLE "Children's Crusade"
    PERFORMER "Sting"
    REM COMPOSER ""
    INDEX 00 11:45:38
    INDEX 01 11:46:65
  TRACK 05 AUDIO
    TITLE "Shadows In The Rain"
    PERFORMER "Sting"
    REM COMPOSER ""
    INDEX 01 16:49:55
  TRACK 06 AUDIO
    TITLE "We Work The Black Seam"
    PERFORMER "Sting"
    REM COMPOSER ""
    INDEX 01 21:39:48
  TRACK 07 AUDIO
    TITLE "Consider Me Gone"
    PERFORMER "Sting"
    REM COMPOSER ""
    INDEX 00 27:20:53
    INDEX 01 27:22:23
  TRACK 08 AUDIO
    TITLE "The Dream Of The Blue Turtles"
    PERFORMER "Sting"
    REM COMPOSER ""
    INDEX 00 31:40:48
    INDEX 01 31:41:23
  TRACK 09 AUDIO
    TITLE "Moon Over Bourbon Street"
    PERFORMER "Sting"
    REM COMPOSER ""
    INDEX 00 32:59:48
    INDEX 01 32:59:60
  TRACK 10 AUDIO
    TITLE "Fortress Around Your Heart"
    PERFORMER "Sting"
    REM COMPOSER ""
    INDEX 00 36:59:10
    INDEX 01 36:59:60
Код:
foobar2000 1.3.16 / Dynamic Range Meter 1.1.1
log date: 2020-01-30 23:40:54
--------------------------------------------------------------------------------
Analyzed: Sting / The Dream Of The Blue Turtles (CD 3750)
--------------------------------------------------------------------------------
DR         Peak         RMS     Duration Track
--------------------------------------------------------------------------------
DR14       0.00 dB   -15.27 dB      4:16 01-If You Love Somebody Set Them Free
DR17       0.00 dB   -18.51 dB      3:32 02-Love Is The Seventh Wave
DR11      -5.63 dB   -18.76 dB      3:58 03-Russians
DR12      -1.19 dB   -18.14 dB      5:03 04-Children's Crusade
DR14      -0.32 dB   -16.90 dB      4:50 05-Shadows In The Rain
DR12      -3.89 dB   -17.55 dB      5:43 06-We Work The Black Seam
DR17      -1.15 dB   -21.18 dB      4:19 07-Consider Me Gone
DR14      -2.01 dB   -20.12 dB      1:18 08-The Dream Of The Blue Turtles
DR13      -6.97 dB   -23.20 dB      4:00 09-Moon Over Bourbon Street
DR16       0.00 dB   -19.17 dB      4:41 10-Fortress Around Your Heart
--------------------------------------------------------------------------------
Number of tracks:  10
Official DR value: DR14
Samplerate:        44100 Hz
Channels:          2
Bits per sample:   16
Bitrate:           801 kbps
Codec:             FLAC
================================================================================

Правила, инструкции, FAQ!!!
Торрент  Добавлен [13 июл 2020, 05:29] Скачать торрент Магнет ссылка
Скачать торрент
[ Размер 14.22 КБ / Просмотров 5 ]

Статус
Проверен 
 
Размер  334.98 МБ
Приватный: Нет (DHT включён)
.torrent скачан  0
 


     Отправить личное сообщение
   
Страница 1 из 1
Показать сообщения за:  Поле сортировки  
Начать новую тему Ответить на тему


Сейчас этот форум просматривают: нет зарегистрированных пользователей и гости: 0


Вы не можете начинать темы
Вы не можете отвечать на сообщения
Вы не можете редактировать свои сообщения
Вы не можете удалять свои сообщения
Вы не можете добавлять вложения

Перейти:  
cron