Начать новую тему Ответить на тему
Статистика раздачи
Размер: 363.16 МБ | Добавлен: 26 мар 2019, 20:58 | Скачали: 0
Сидеров: 1  [0 байт/сек]    Личеров: 0  [0 байт/сек]
Пред. тема | След. тема 

Автор
Сообщение

СообщениеДобавлено: 26 мар 2019, 20:58 

Ответить с цитатой 

Sting - ...Nothing Like the Sun
Жанр: Pop-rock
Год выпуска диска: 1987
Производитель диска: USA, A&M
Аудио кодек: APE
Тип рипа: image+.cue
Битрейт аудио: lossless
Продолжительность: 55:09.50
Трэклист:
01. The Lazarus Heart (4:36)
02. Be Still My Beating Heart (5:34)
03. Englishman In New York (4:27)
04. History Will Teach Us Nothing (4:59)
05. They Dance Alone (Cuecu Solo) (7:16)
06. Fragile (3:56)
07. We'll Be Together (4:56)
08. Straight to My Heart (3:55)
09. Rock Steady (4:29)
10. Sister Moon (3:47)
11. Little Wing (5:11)
12. The Secret Marriage (2:04)
Доп. информация - http://en.wikipedia.org/wiki/Sting_(musician)
На Discogs - http://www.discogs.com/Sting-Nothing-Like-The-Sun/release/1550686
Код:
Exact Audio Copy V0.99 prebeta 4 from 23. January 2008
Отчёт EAC об извлечении, выполненном 16. мая 2009, 22:12
Sting / ...Nothing Like the Sun
Дисковод: HL-DT-STDVDRAM GH20NS10   Adapter: 1  ID: 0
Режим чтения                 : Достоверность
Использование точного потока : Да
Отключение кэша аудио        : Да
Использование указателей C2  : Нет
Коррекция смещения при чтении                     : 667
Способность читать области Lead-in и Lead-out     : Нет
Заполнение пропущенных сэмплов тишиной            : Да
Удаление блоков с тишиной в начале и конце        : Нет
При вычислениях CRC использовались нулевые сэмплы : Да
Интерфейс                                         : Установленный внешний ASPI-интерфейс
Выходной формат : Внутренние WAV-операции
Формат сэмплов  : 44.100 Гц; 16 бит; стерео
TOC извлечённого CD
     Трек |   Старт  | Длительность | Начальный сектор | Конечный сектор
    ---------------------------------------------------------------------
       1  |  0:00.00 |    4:36.08   |           0      |      20707
       2  |  4:36.08 |    5:34.10   |       20708      |      45767
       3  | 10:10.18 |    4:27.20   |       45768      |      65812
       4  | 14:37.38 |    4:59.25   |       65813      |      88262
       5  | 19:36.63 |    7:15.65   |       88263      |     120952
       6  | 26:52.53 |    3:56.22   |      120953      |     138674
       7  | 30:49.00 |    4:55.43   |      138675      |     160842
       8  | 35:44.43 |    3:54.52   |      160843      |     178444
       9  | 39:39.20 |    4:28.50   |      178445      |     198594
      10  | 44:07.70 |    3:46.70   |      198595      |     215614
      11  | 47:54.65 |    5:11.20   |      215615      |     238959
      12  | 53:06.10 |    2:03.40   |      238960      |     248224
Характеристики диапазона извлечения и сообщения об ошибках
Выбранный диапазон
     Имя файла K:\Sting - ...Nothing Like the Sun (1987)\Sting - ...Nothing Like the Sun.wav
     Пиковый уровень 100.0 %
     Качество диапазона 100.0 %
     CRC копии AB994126
     Копирование... OK
Ошибок не произошло
AccurateRip: сводка
Трек  1  точное извлечение (доверие 29)  [8CFF0686]
Трек  2  точное извлечение (доверие 30)  [1FBB2AA1]
Трек  3  точное извлечение (доверие 29)  [F5494478]
Трек  4  точное извлечение (доверие 28)  [408A5897]
Трек  5  точное извлечение (доверие 27)  [027F77F7]
Трек  6  точное извлечение (доверие 29)  [0BF96DFD]
Трек  7  точное извлечение (доверие 29)  [C770D3C2]
Трек  8  точное извлечение (доверие 30)  [8E2EC44D]
Трек  9  точное извлечение (доверие 30)  [E14D8999]
Трек 10  точное извлечение (доверие 29)  [C0F84930]
Трек 11  точное извлечение (доверие 28)  [25C8890E]
Трек 12  точное извлечение (доверие 26)  [02D4F1AE]
Все треки извлечены точно
Конец отчёта
Правила, инструкции, FAQ!!!
Торрент  Добавлен [26 мар 2019, 20:58] Скачать торрент Магнет ссылка
Скачать торрент
[ Размер 15.38 КБ / Просмотров 0 ]

Статус
Проверен 
 
Размер  363.16 МБ
Приватный: Нет (DHT включён)
.torrent скачан  0
 


     Отправить личное сообщение
   
Страница 1 из 1
Показать сообщения за:  Поле сортировки  
Начать новую тему Ответить на тему


Сейчас этот форум просматривают: нет зарегистрированных пользователей и гости: 0


Вы не можете начинать темы
Вы не можете отвечать на сообщения
Вы не можете редактировать свои сообщения
Вы не можете удалять свои сообщения
Вы не можете добавлять вложения

Перейти:  
cron