Начать новую тему Ответить на тему
Статистика раздачи
Размер: 468.5 МБ | Добавлен: 26 мар 2019, 19:41 | Скачали: 1
Сидеров: 3  [0 байт/сек]    Личеров: 1  [0 байт/сек]
Пред. тема | След. тема 

Автор
Сообщение

СообщениеДобавлено: 26 мар 2019, 19:41 

Ответить с цитатой 

Sting - Live in San Fracisco 1993
Жанр: pop-rock
Страна-производитель диска: USA
Год издания диска: 1993
Издатель (лейбл): AAD GEMA
Номер по каталогу: P 910066
Страна: UK
Аудиокодек: FLAC (*.flac)
Тип рипа: tracks+.cue
Битрейт аудио: lossless
Продолжительность: 01:19:33
Источник (релизер): CD
Наличие сканов в содержимом раздачи: да
Треклист:
01. Heavy cloud no rain
02. Love is stronger than justicle
03. Seven days
04. Fields of gold
05. Day in the life
06. Every little thing she does is magic
07. Probably me
08. Shape of my heart
09. St. Augustine in Hell
10. Straight to my heart
11. Englishman in New York
12. King of pain
13. Bring on the night
14. When the world is running down
15. Every breath you take
16. Fragile
Код:
Exact Audio Copy V0.99 prebeta 5 from 4. May 2009
Отчёт EAC об извлечении, выполненном 27. октября 2011, 22:58
Sting / Live in San Fracisco 1993
Дисковод: Optiarc DVD RW AD-5240S   Adapter: 3  ID: 1
Режим чтения                 : Достоверность
Использование точного потока : Да
Отключение кэша аудио        : Да
Использование указателей C2  : Нет
Коррекция смещения при чтении                     : 48
Способность читать области Lead-in и Lead-out     : Нет
Заполнение пропущенных сэмплов тишиной            : Да
Удаление блоков с тишиной в начале и конце        : Нет
При вычислениях CRC использовались нулевые сэмплы : Да
Интерфейс                                         : Встроенный Win32-интерфейс для Win NT/2000
Обработка зазоров                                 : Добавлено к предыдущему треку
Выходной формат          : Пользовательский кодировщик
Выбранный битрейт        : 768 kBit/s
Качество                 : Высокий
Добавление ID3-тэга      : Нет
Утилита сжатия           : L:\программы\Exact Audio Copy\FLAC\FLAC.EXE
Дополнительные параметры : -6 -V -T "ARTIST=%a" -T "TITLE=%t" -T "ALBUM=%g" -T "DATE=%y" -T "TRACKNUMBER=%n" -T "GENRE=%m" -T "COMMENT=%e" %s -o %d
TOC извлечённого CD
     Трек |   Старт  | Длительность | Начальный сектор | Конечный сектор
    ---------------------------------------------------------------------
       1  |  0:00.00 |    4:18.00   |           0      |      19349
       2  |  4:18.00 |    6:36.37   |       19350      |      49086
       3  | 10:54.37 |    4:46.63   |       49087      |      70599
       4  | 15:41.25 |    3:53.17   |       70600      |      88091
       5  | 19:34.42 |    4:29.00   |       88092      |     108266
       6  | 24:03.42 |    4:23.50   |      108267      |     128041
       7  | 28:27.17 |    6:23.70   |      128042      |     156836
       8  | 34:51.12 |    4:27.33   |      156837      |     176894
       9  | 39:18.45 |    4:25.60   |      176895      |     196829
      10  | 43:44.30 |    5:00.12   |      196830      |     219341
      11  | 48:44.42 |    5:19.65   |      219342      |     243331
      12  | 54:04.32 |    6:52.68   |      243332      |     274299
      13  | 60:57.25 |    1:27.50   |      274300      |     280874
      14  | 62:25.00 |    7:15.22   |      280875      |     313521
      15  | 69:40.22 |    5:58.25   |      313522      |     340396
      16  | 75:38.47 |    3:55.00   |      340397      |     358021
Трек  1
     Имя файла L:\Новая папка\01. Sting - Heavy cloud no rain.wav
     Длина предзазора  0:00:02.00
     Пиковый уровень 95.9 %
     Качество трека 99.9 %
     CRC теста 2F919C1C
     CRC копии 2F919C1C
     Трек не обнаружен в базе AccurateRip
     Копирование... OK
Трек  2
     Имя файла L:\Новая папка\02. Sting - Love is stronger than justicle.wav
     Пиковый уровень 100.0 %
     Качество трека 99.9 %
     CRC теста 61B2D23D
     CRC копии 61B2D23D
     Трек не обнаружен в базе AccurateRip
     Копирование... OK
Трек  3
     Имя файла L:\Новая папка\03. Sting - Seven days.wav
     Пиковый уровень 94.6 %
     Качество трека 100.0 %
     CRC теста 48DB47C0
     CRC копии 48DB47C0
     Трек не обнаружен в базе AccurateRip
     Копирование... OK
Трек  4
     Имя файла L:\Новая папка\04. Sting - Fields of gold.wav
     Пиковый уровень 91.4 %
     Качество трека 100.0 %
     CRC теста 05B98EC8
     CRC копии 05B98EC8
     Трек не обнаружен в базе AccurateRip
     Копирование... OK
Трек  5
     Имя файла L:\Новая папка\05. Sting - Day in the life.wav
     Пиковый уровень 92.0 %
     Качество трека 100.0 %
     CRC теста FE7A30BF
     CRC копии FE7A30BF
     Трек не обнаружен в базе AccurateRip
     Копирование... OK
Трек  6
     Имя файла L:\Новая папка\06. Sting - Every little thing she does is magic.wav
     Длина предзазора  0:00:00.01
     Пиковый уровень 93.5 %
     Качество трека 99.9 %
     CRC теста F128034B
     CRC копии F128034B
     Трек не обнаружен в базе AccurateRip
     Копирование... OK
Трек  7
     Имя файла L:\Новая папка\07. Sting - Probably me.wav
     Пиковый уровень 95.1 %
     Качество трека 100.0 %
     CRC теста AA74B835
     CRC копии AA74B835
     Трек не обнаружен в базе AccurateRip
     Копирование... OK
Трек  8
     Имя файла L:\Новая папка\08. Sting - Shape of my heart.wav
     Длина предзазора  0:00:02.09
     Пиковый уровень 98.3 %
     Качество трека 100.0 %
     CRC теста 67CBC866
     CRC копии 67CBC866
     Трек не обнаружен в базе AccurateRip
     Копирование... OK
Трек  9
     Имя файла L:\Новая папка\09. Sting - St. Augustine in Hell.wav
     Пиковый уровень 95.3 %
     Качество трека 100.0 %
     CRC теста 2BE0B9E5
     CRC копии 2BE0B9E5
     Трек не обнаружен в базе AccurateRip
     Копирование... OK
Трек 10
     Имя файла L:\Новая папка\10. Sting - Straight to my heart.wav
     Пиковый уровень 96.4 %
     Качество трека 100.0 %
     CRC теста 8ACD24C2
     CRC копии 8ACD24C2
     Трек не обнаружен в базе AccurateRip
     Копирование... OK
Трек 11
     Имя файла L:\Новая папка\11. Sting - Englishman in New York.wav
     Пиковый уровень 97.5 %
     Качество трека 100.0 %
     CRC теста 9B4B21FF
     CRC копии 9B4B21FF
     Трек не обнаружен в базе AccurateRip
     Копирование... OK
Трек 12
     Имя файла L:\Новая папка\12. Sting - King of pain.wav
     Пиковый уровень 92.9 %
     Качество трека 100.0 %
     CRC теста 321B3B67
     CRC копии 321B3B67
     Трек не обнаружен в базе AccurateRip
     Копирование... OK
Трек 13
     Имя файла L:\Новая папка\13. Sting - Bring on the night.wav
     Пиковый уровень 91.0 %
     Качество трека 99.8 %
     CRC теста E8EFBF03
     CRC копии E8EFBF03
     Трек не обнаружен в базе AccurateRip
     Копирование... OK
Трек 14
     Имя файла L:\Новая папка\14. Sting - When the world is running down.wav
     Пиковый уровень 96.8 %
     Качество трека 100.0 %
     CRC теста FE6400E6
     CRC копии FE6400E6
     Трек не обнаружен в базе AccurateRip
     Копирование... OK
Трек 15
     Имя файла L:\Новая папка\15. Sting - Every breath you take.wav
     Пиковый уровень 97.5 %
     Качество трека 100.0 %
     CRC теста 35DD17A1
     CRC копии 35DD17A1
     Трек не обнаружен в базе AccurateRip
     Копирование... OK
Трек 16
     Имя файла L:\Новая папка\16. Sting - Fragile.wav
     Пиковый уровень 91.0 %
     Качество трека 100.0 %
     CRC теста D908C019
     CRC копии D908C019
     Трек не обнаружен в базе AccurateRip
     Копирование... OK
Ни одного трека нет в базе AccurateRip
Ошибок не произошло
Конец отчёта
Код:
REM DATE 1993
REM DISCID EC12A510
REM COMMENT "ExactAudioCopy v0.99pb5"
CATALOG 0000000000000
PERFORMER "Sting"
TITLE "Live in San Fracisco 1993"
FILE "01. Sting - Heavy cloud no rain.wav" WAVE
  TRACK 01 AUDIO
    TITLE "Heavy cloud no rain"
    PERFORMER "Sting"
    INDEX 01 00:00:00
FILE "02. Sting - Love is stronger than justicle.wav" WAVE
  TRACK 02 AUDIO
    TITLE "Love is stronger than justicle"
    PERFORMER "Sting"
    INDEX 01 00:00:00
FILE "03. Sting - Seven days.wav" WAVE
  TRACK 03 AUDIO
    TITLE "Seven days"
    PERFORMER "Sting"
    INDEX 01 00:00:00
FILE "04. Sting - Fields of gold.wav" WAVE
  TRACK 04 AUDIO
    TITLE "Fields of gold"
    PERFORMER "Sting"
    INDEX 01 00:00:00
FILE "05. Sting - Day in the life.wav" WAVE
  TRACK 05 AUDIO
    TITLE "Day in the life"
    PERFORMER "Sting"
    INDEX 01 00:00:00
  TRACK 06 AUDIO
    TITLE "Every little thing she does is magic"
    PERFORMER "Sting"
    INDEX 00 04:28:74
FILE "06. Sting - Every little thing she does is magic.wav" WAVE
    INDEX 01 00:00:00
FILE "07. Sting - Probably me.wav" WAVE
  TRACK 07 AUDIO
    TITLE "Probably me"
    PERFORMER "Sting"
    INDEX 01 00:00:00
  TRACK 08 AUDIO
    TITLE "Shape of my heart"
    PERFORMER "Sting"
    INDEX 00 06:21:61
FILE "08. Sting - Shape of my heart.wav" WAVE
    INDEX 01 00:00:00
FILE "09. Sting - St. Augustine in Hell.wav" WAVE
  TRACK 09 AUDIO
    TITLE "St. Augustine in Hell"
    PERFORMER "Sting"
    INDEX 01 00:00:00
FILE "10. Sting - Straight to my heart.wav" WAVE
  TRACK 10 AUDIO
    TITLE "Straight to my heart"
    PERFORMER "Sting"
    INDEX 01 00:00:00
FILE "11. Sting - Englishman in New York.wav" WAVE
  TRACK 11 AUDIO
    TITLE "Englishman in New York"
    PERFORMER "Sting"
    INDEX 01 00:00:00
FILE "12. Sting - King of pain.wav" WAVE
  TRACK 12 AUDIO
    TITLE "King of pain"
    PERFORMER "Sting"
    INDEX 01 00:00:00
FILE "13. Sting - Bring on the night.wav" WAVE
  TRACK 13 AUDIO
    TITLE "Bring on the night"
    PERFORMER "Sting"
    INDEX 01 00:00:00
FILE "14. Sting - When the world is running down.wav" WAVE
  TRACK 14 AUDIO
    TITLE "When the world is running down"
    PERFORMER "Sting"
    INDEX 01 00:00:00
FILE "15. Sting - Every breath you take.wav" WAVE
  TRACK 15 AUDIO
    TITLE "Every breath you take"
    PERFORMER "Sting"
    INDEX 01 00:00:00
FILE "16. Sting - Fragile.wav" WAVE
  TRACK 16 AUDIO
    TITLE "Fragile"
    PERFORMER "Sting"
    INDEX 01 00:00:00
Правила, инструкции, FAQ!!!
Торрент  Добавлен [26 мар 2019, 19:41] Скачать торрент Магнет ссылка
Скачать торрент
[ Размер 39.52 КБ / Просмотров 3 ]

Статус
Проверен 
 
Размер  468.5 МБ
Приватный: Нет (DHT включён)
.torrent скачан  1
 


     Отправить личное сообщение
   
Страница 1 из 1
Показать сообщения за:  Поле сортировки  
Начать новую тему Ответить на тему


Сейчас этот форум просматривают: нет зарегистрированных пользователей и гости: 0


Вы не можете начинать темы
Вы не можете отвечать на сообщения
Вы не можете редактировать свои сообщения
Вы не можете удалять свои сообщения
Вы не можете добавлять вложения

Перейти:  
cron