Начать новую тему Ответить на тему
Статистика раздачи
Размер: 247.42 МБ | Добавлен: 26 мар 2019, 19:24 | Скачали: 0
Сидеров: 4  [0 байт/сек]    Личеров: 1  [0 байт/сек]
Пред. тема | След. тема 

Автор
Сообщение

СообщениеДобавлено: 26 мар 2019, 19:24 

Ответить с цитатой 

Sting - Live in Chicago 1992
Жанр: pop-rock
Страна-производитель диска: USA
Год издания диска: 1993
Издатель (лейбл): AAD GEMA
Номер по каталогу: P 910075
Страна: UK
Аудиокодек: FLAC (*.flac)
Тип рипа: tracks+.cue
Битрейт аудио: lossless
Продолжительность: 00:42:49
Источник (релизер): CD
Наличие сканов в содержимом раздачи: да
Треклист:
01. Jeremiah Blues (Live)
02. Mad About You (Live)
03. The Wind Cries Mary (Live)
04. Message in a Bottle (Live)
05. The Soul Cages (Live)
06. Every Breath You Take (Live)
07. Be Bop A Lula (Live)
08. I Miss You, Kate (Live)
09. All This Time (Live)
Код:
Exact Audio Copy V0.99 prebeta 5 from 4. May 2009
Отчёт EAC об извлечении, выполненном 27. октября 2011, 22:11
Sting / Live in Chicago 1992
Дисковод: Optiarc DVD RW AD-5240S   Adapter: 3  ID: 1
Режим чтения                 : Достоверность
Использование точного потока : Да
Отключение кэша аудио        : Да
Использование указателей C2  : Нет
Коррекция смещения при чтении                     : 48
Способность читать области Lead-in и Lead-out     : Нет
Заполнение пропущенных сэмплов тишиной            : Да
Удаление блоков с тишиной в начале и конце        : Нет
При вычислениях CRC использовались нулевые сэмплы : Да
Интерфейс                                         : Встроенный Win32-интерфейс для Win NT/2000
Обработка зазоров                                 : Добавлено к предыдущему треку
Выходной формат          : Пользовательский кодировщик
Выбранный битрейт        : 768 kBit/s
Качество                 : Высокий
Добавление ID3-тэга      : Нет
Утилита сжатия           : L:\программы\Exact Audio Copy\FLAC\FLAC.EXE
Дополнительные параметры : -6 -V -T "ARTIST=%a" -T "TITLE=%t" -T "ALBUM=%g" -T "DATE=%y" -T "TRACKNUMBER=%n" -T "GENRE=%m" -T "COMMENT=%e" %s -o %d
TOC извлечённого CD
     Трек |   Старт  | Длительность | Начальный сектор | Конечный сектор
    ---------------------------------------------------------------------
       1  |  0:00.00 |    5:44.20   |           0      |      25819
       2  |  5:44.20 |    5:00.15   |       25820      |      48334
       3  | 10:44.35 |    2:34.12   |       48335      |      59896
       4  | 13:18.47 |    5:16.65   |       59897      |      83661
       5  | 18:35.37 |    7:02.65   |       83662      |     115376
       6  | 25:38.27 |    4:44.38   |      115377      |     136714
       7  | 30:22.65 |    1:50.72   |      136715      |     145036
       8  | 32:13.62 |    4:55.63   |      145037      |     167224
       9  | 37:09.50 |    5:39.37   |      167225      |     192686
Трек  1
     Имя файла L:\Новая папка\01. Sting - Jeremiah Blues (Live).wav
     Длина предзазора  0:00:02.00
     Пиковый уровень 100.0 %
     Качество трека 100.0 %
     CRC теста 24E3CFF9
     CRC копии 24E3CFF9
     Трек не обнаружен в базе AccurateRip
     Копирование... OK
Трек  2
     Имя файла L:\Новая папка\02. Sting - Mad About You (Live).wav
     Пиковый уровень 100.0 %
     Качество трека 99.9 %
     CRC теста 96930959
     CRC копии 96930959
     Трек не обнаружен в базе AccurateRip
     Копирование... OK
Трек  3
     Имя файла L:\Новая папка\03. Sting - The Wind Cries Mary (Live).wav
     Пиковый уровень 99.9 %
     Качество трека 100.0 %
     CRC теста 59DB6C84
     CRC копии 59DB6C84
     Трек не обнаружен в базе AccurateRip
     Копирование... OK
Трек  4
     Имя файла L:\Новая папка\04. Sting - Message in a Bottle (Live).wav
     Пиковый уровень 99.9 %
     Качество трека 100.0 %
     CRC теста 0940F2D0
     CRC копии 0940F2D0
     Трек не обнаружен в базе AccurateRip
     Копирование... OK
Трек  5
     Имя файла L:\Новая папка\05. Sting - The Soul Cages (Live).wav
     Пиковый уровень 99.9 %
     Качество трека 100.0 %
     CRC теста 5667D53A
     CRC копии 5667D53A
     Трек не обнаружен в базе AccurateRip
     Копирование... OK
Трек  6
     Имя файла L:\Новая папка\06. Sting - Every Breath You Take (Live).wav
     Пиковый уровень 99.9 %
     Качество трека 100.0 %
     CRC теста 6AFD34D4
     CRC копии 6AFD34D4
     Трек не обнаружен в базе AccurateRip
     Копирование... OK
Трек  7
     Имя файла L:\Новая папка\07. Sting - Be Bop A Lula (Live).wav
     Длина предзазора  0:00:00.01
     Пиковый уровень 99.9 %
     Качество трека 100.0 %
     CRC теста 0022FA69
     CRC копии 0022FA69
     Трек не обнаружен в базе AccurateRip
     Копирование... OK
Трек  8
     Имя файла L:\Новая папка\08. Sting - I Miss You, Kate (Live).wav
     Пиковый уровень 99.9 %
     Качество трека 99.9 %
     CRC теста E094BA40
     CRC копии E094BA40
     Трек не обнаружен в базе AccurateRip
     Копирование... OK
Трек  9
     Имя файла L:\Новая папка\09. Sting - All This Time (Live).wav
     Пиковый уровень 99.0 %
     Качество трека 100.0 %
     CRC теста 08DBD9A8
     CRC копии 08DBD9A8
     Трек не обнаружен в базе AccurateRip
     Копирование... OK
Ни одного трека нет в базе AccurateRip
Ошибок не произошло
Конец отчёта
Код:
REM DATE 1992
REM DISCID 640A0909
REM COMMENT "ExactAudioCopy v0.99pb5"
CATALOG 0000000000000
PERFORMER "Sting"
TITLE "Live in Chicago 1992"
FILE "01. Sting - Jeremiah Blues (Live).wav" WAVE
  TRACK 01 AUDIO
    TITLE "Jeremiah Blues (Live)"
    PERFORMER "Sting"
    INDEX 01 00:00:00
FILE "02. Sting - Mad About You (Live).wav" WAVE
  TRACK 02 AUDIO
    TITLE "Mad About You (Live)"
    PERFORMER "Sting"
    INDEX 01 00:00:00
FILE "03. Sting - The Wind Cries Mary (Live).wav" WAVE
  TRACK 03 AUDIO
    TITLE "The Wind Cries Mary (Live)"
    PERFORMER "Sting"
    INDEX 01 00:00:00
FILE "04. Sting - Message in a Bottle (Live).wav" WAVE
  TRACK 04 AUDIO
    TITLE "Message in a Bottle (Live)"
    PERFORMER "Sting"
    INDEX 01 00:00:00
FILE "05. Sting - The Soul Cages (Live).wav" WAVE
  TRACK 05 AUDIO
    TITLE "The Soul Cages (Live)"
    PERFORMER "Sting"
    INDEX 01 00:00:00
FILE "06. Sting - Every Breath You Take (Live).wav" WAVE
  TRACK 06 AUDIO
    TITLE "Every Breath You Take (Live)"
    PERFORMER "Sting"
    INDEX 01 00:00:00
  TRACK 07 AUDIO
    TITLE "Be Bop A Lula (Live)"
    PERFORMER "Sting"
    INDEX 00 04:44:37
FILE "07. Sting - Be Bop A Lula (Live).wav" WAVE
    INDEX 01 00:00:00
FILE "08. Sting - I Miss You, Kate (Live).wav" WAVE
  TRACK 08 AUDIO
    TITLE "I Miss You, Kate (Live)"
    PERFORMER "Sting"
    INDEX 01 00:00:00
FILE "09. Sting - All This Time (Live).wav" WAVE
  TRACK 09 AUDIO
    TITLE "All This Time (Live)"
    PERFORMER "Sting"
    INDEX 01 00:00:00
Правила, инструкции, FAQ!!!
Торрент  Добавлен [26 мар 2019, 19:24] Скачать торрент Магнет ссылка
Скачать торрент
[ Размер 40.81 КБ / Просмотров 1 ]

Статус
Проверен 
 
Размер  247.42 МБ
Приватный: Нет (DHT включён)
.torrent скачан  0
 


     Отправить личное сообщение
   
Страница 1 из 1
Показать сообщения за:  Поле сортировки  
Начать новую тему Ответить на тему


Сейчас этот форум просматривают: нет зарегистрированных пользователей и гости: 0


Вы не можете начинать темы
Вы не можете отвечать на сообщения
Вы не можете редактировать свои сообщения
Вы не можете удалять свои сообщения
Вы не можете добавлять вложения

Перейти:  
cron