Начать новую тему Ответить на тему
Статистика раздачи
Размер: 442.17 МБ | Добавлен: 26 мар 2019, 19:37 | Скачали: 0
Сидеров: 2  [0 байт/сек]    Личеров: 0  [0 байт/сек]
Пред. тема | След. тема 

Автор
Сообщение

СообщениеДобавлено: 26 мар 2019, 19:37 

Ответить с цитатой 

Sting - GRAND Collection
Жанр: Pop,Rock
Год выпуска диска: 1997
Издатель (лейбл): Квадро Диск
Номер по каталогу: Z 1150
Производитель диска: Россия
Аудио кодек: APE
Тип рипа: image+.cue
Битрейт аудио: lossless
Продолжительность: 01:09:58
Треклист:
01 - Saint Agnes And The Burning Train [2:45]
02 - It's Probably Me [5:04]
03 - Sister Moon [3:47]
04 - Englishman In New York [4:28]
05 - If You Love Somebody Set Them Free [4:17]
06 - Mad About You [3:56]
07 - Fields Of Gold [3:40]
08 - Love In The Seventh Wave [3:33]
09 - Russians [3:59]
10 - We'll Be Together [3:53]
11 - Let Your Soul Be Your Pilot [6:41]
12 - La Bele Dame Sans Regrets [5:17]
13 - When We Dance [5:58]
14 - Moon Over Burbon Street [4:01]
15 - All For Love (feat R.Stewart, B.Adams) [4:45]
16 - Fragile [3:54]
Код:
Exact Audio Copy V0.99 prebeta 5 from 4. May 2009
Отчёт EAC об извлечении, выполненном 30. августа 2010, 16:01
Sting / Grand Collection
Дисковод: HL-DT-STDVD-RAM GH22NS30   Adapter: 3  ID: 0
Режим чтения                 : Достоверность
Использование точного потока : Да
Отключение кэша аудио        : Да
Использование указателей C2  : Нет
Коррекция смещения при чтении                     : 102
Способность читать области Lead-in и Lead-out     : Нет
Заполнение пропущенных сэмплов тишиной            : Да
Удаление блоков с тишиной в начале и конце        : Нет
При вычислениях CRC использовались нулевые сэмплы : Да
Интерфейс                                         : Встроенный Win32-интерфейс для Win NT/2000
Выходной формат : Внутренние WAV-операции
Формат сэмплов  : 44.100 Гц; 16 бит; стерео
TOC извлечённого CD
     Трек |   Старт  | Длительность | Начальный сектор | Конечный сектор
    ---------------------------------------------------------------------
       1  |  0:00.00 |    2:44.74   |           0      |      12373
       2  |  2:44.74 |    5:03.45   |       12374      |      35143
       3  |  7:48.44 |    3:47.24   |       35144      |      52192
       4  | 11:35.68 |    4:28.20   |       52193      |      72312
       5  | 16:04.13 |    4:16.60   |       72313      |      91572
       6  | 20:20.73 |    3:56.34   |       91573      |     109306
       7  | 24:17.32 |    3:40.00   |      109307      |     125806
       8  | 27:57.32 |    3:33.16   |      125807      |     141797
       9  | 31:30.48 |    3:58.66   |      141798      |     159713
      10  | 35:29.39 |    3:52.54   |      159714      |     177167
      11  | 39:22.18 |    6:41.35   |      177168      |     207277
      12  | 46:03.53 |    5:16.52   |      207278      |     231029
      13  | 51:20.30 |    5:57.68   |      231030      |     257872
      14  | 57:18.23 |    4:01.27   |      257873      |     275974
      15  | 61:19.50 |    4:45.26   |      275975      |     297375
      16  | 66:05.01 |    3:53.41   |      297376      |     314891
Характеристики диапазона извлечения и сообщения об ошибках
Выбранный диапазон
     Имя файла C:\Users\EDDYSS@N\Desktop\Sting(1997) - Grand Collection[lossless]\Sting - Grand Collection.wav
     Пиковый уровень 98.4 %
     Качество диапазона 100.0 %
     CRC теста CD903C04
     CRC копии CD903C04
     Копирование... OK
Ошибок не произошло
AccurateRip: сводка
Трек  1  нет в базе данных
Трек  2  нет в базе данных
Трек  3  нет в базе данных
Трек  4  нет в базе данных
Трек  5  нет в базе данных
Трек  6  нет в базе данных
Трек  7  нет в базе данных
Трек  8  нет в базе данных
Трек  9  нет в базе данных
Трек 10  нет в базе данных
Трек 11  нет в базе данных
Трек 12  нет в базе данных
Трек 13  нет в базе данных
Трек 14  нет в базе данных
Трек 15  нет в базе данных
Трек 16  нет в базе данных
Ни одного трека нет в базе AccurateRip
Конец отчёта
Код:
AUDIOCHECKER v2.0 beta (build 457) - by Dester - opdester@freemail.hu
~~~~~~~~~~~~~~~~~~~~~~~~~~~~~~~~~~
Начато: понедельник, 30. 08. 2010. - 19:48.12
Найдено файлов: 1
1 -===- C:\Users\EDDYSS@N\Desktop\Sting(1997) - Grand Collection[lossless]\Sting - Grand Collection.ape
  Извлечение успешно выполнено
  Заключение: этот трек - CDDA с вероятностью 100%
  Временный файл удалён.
Завершено: понедельник, 30. 08. 2010. - 19:52.52 (Время операции: 0:04.40)
Мои раздачи

Рип свой , снятый в режиме Test&Copy + сканы обложек и диска 600 dpi !!!

Приятного прослушивания и не забываем говорить спасибо !!!:wink:
Правила, инструкции, FAQ!!!
Торрент  Добавлен [26 мар 2019, 19:37] Скачать торрент Магнет ссылка
Скачать торрент
[ Размер 18.24 КБ / Просмотров 8 ]

Статус
Проверен 
 
Размер  442.17 МБ
Приватный: Нет (DHT включён)
.torrent скачан  0
 


     Отправить личное сообщение
   
Страница 1 из 1
Показать сообщения за:  Поле сортировки  
Начать новую тему Ответить на тему


Сейчас этот форум просматривают: нет зарегистрированных пользователей и гости: 0


Вы не можете начинать темы
Вы не можете отвечать на сообщения
Вы не можете редактировать свои сообщения
Вы не можете удалять свои сообщения
Вы не можете добавлять вложения

Перейти:  
cron