Начать новую тему Ответить на тему
Статистика раздачи
Размер: 141.28 МБ | Добавлен: 26 мар 2019, 20:44 | Скачали: 0
Сидеров: 1  [0 байт/сек]    Личеров: 0  [0 байт/сек]
Пред. тема | След. тема 

Автор
Сообщение

СообщениеДобавлено: 26 мар 2019, 20:44 

Ответить с цитатой 

Sting / Demolition Man (CDS)
Жанр: Pop, Rock
Страна-производитель диска: U.K.
Год издания диска: 1993
Издатель (лейбл): A&M Records Inc.
Номер по каталогу: 580 453-2
Страна: England
Аудиокодек: FLAC (*.flac)
Тип рипа: tracks+.cue
Битрейт аудио: lossless
Продолжительность: 19'39
Источник (релизер): собственный CD
Наличие сканов в содержимом раздачи: да
Треклист:
1. Demolition Man (Soulpower Radio Mix) (3:43)
2. Demolition Man (Film Version) (5:30)
3. It's Probably Me (Live) (6:22)
4. A Day In The Life (Live) (4:06)
Код:
Exact Audio Copy V0.99 prebeta 5 from 4. May 2009
EAC extraction logfile from 7. September 2011, 19:36
Sting / Demolition Man (CD Single 3)
Used drive  : Optiarc DVD RW AD-7580S   Adapter: 0  ID: 1
Read mode               : Secure
Utilize accurate stream : Yes
Defeat audio cache      : Yes
Make use of C2 pointers : No
Read offset correction                      : 6
Overread into Lead-In and Lead-Out          : No
Fill up missing offset samples with silence : Yes
Delete leading and trailing silent blocks   : No
Null samples used in CRC calculations       : Yes
Used interface                              : Native Win32 interface for Win NT & 2000
Gap handling                                : Appended to previous track
Used output format              : User Defined Encoder
Selected bitrate                : 768 kBit/s
Quality                         : High
Add ID3 tag                     : No
Command line compressor         : C:\Program Files New\Exact Audio Copy\FLAC\FLAC.EXE
Additional command line options : -8 -V %s
TOC of the extracted CD
     Track |   Start  |  Length  | Start sector | End sector
    ---------------------------------------------------------
        1  |  0:00.33 |  3:42.60 |        33    |    16742
        2  |  3:43.18 |  5:29.42 |     16743    |    41459
        3  |  9:12.60 |  6:22.35 |     41460    |    70144
        4  | 15:35.20 |  4:06.13 |     70145    |    88607
Track  1
     Filename D:\Torrents\Sting - 1993 - Demolition Man (CDS)\01. Sting - Demolition Man (Soulpower Mix).wav
     Pre-gap length  0:00:02.33
     Peak level 95.3 %
     Track quality 99.9 %
     Copy CRC 72079AAB
     Accurately ripped (confidence 2)  [1CF493E2]
     Copy OK
Track  2
     Filename D:\Torrents\Sting - 1993 - Demolition Man (CDS)\02. Sting - Demolition Man (Film Version).wav
     Pre-gap length  0:00:02.23
     Peak level 99.3 %
     Track quality 100.0 %
     Copy CRC 55AD8EEC
     Accurately ripped (confidence 2)  [01649770]
     Copy OK
Track  3
     Filename D:\Torrents\Sting - 1993 - Demolition Man (CDS)\03. Sting - It's Probaly Me (Live).wav
     Pre-gap length  0:00:02.30
     Peak level 95.3 %
     Track quality 100.0 %
     Copy CRC B0E2D24D
     Accurately ripped (confidence 2)  [A8DD199F]
     Copy OK
Track  4
     Filename D:\Torrents\Sting - 1993 - Demolition Man (CDS)\04. Sting - A Day In The Life (live).wav
     Peak level 95.3 %
     Track quality 100.0 %
     Copy CRC 8404AD9D
     Accurately ripped (confidence 2)  [78F08E40]
     Copy OK
All tracks accurately ripped
No errors occurred
End of status report
Код:
REM GENRE Rock
REM DATE 1993
REM DISCID 2C049D04
REM COMMENT "ExactAudioCopy v0.99pb5"
PERFORMER "Sting"
TITLE "Demolition Man (CD Single 3)"
FILE "01. Sting - Demolition Man (Soulpower Mix).wav" WAVE
  TRACK 01 AUDIO
    TITLE "Demolition Man (Soulpower Mix)"
    PERFORMER "Sting"
    PREGAP 00:00:33
    INDEX 01 00:00:00
  TRACK 02 AUDIO
    TITLE "Demolition Man (Film Version)"
    PERFORMER "Sting"
    INDEX 00 03:40:37
FILE "02. Sting - Demolition Man (Film Version).wav" WAVE
    INDEX 01 00:00:00
  TRACK 03 AUDIO
    TITLE "It's Probaly Me (Live)"
    PERFORMER "Sting"
    INDEX 00 05:27:12
FILE "03. Sting - It's Probaly Me (Live).wav" WAVE
    INDEX 01 00:00:00
FILE "04. Sting - A Day In The Life (live).wav" WAVE
  TRACK 04 AUDIO
    TITLE "A Day In The Life (live)"
    PERFORMER "Sting"
    INDEX 01 00:00:00
Правила, инструкции, FAQ!!!
Торрент  Добавлен [26 мар 2019, 20:44] Скачать торрент Магнет ссылка
Скачать торрент
[ Размер 12.06 КБ / Просмотров 0 ]

Статус
Проверен 
 
Размер  141.28 МБ
Приватный: Нет (DHT включён)
.torrent скачан  0
 


     Отправить личное сообщение
   
Страница 1 из 1
Показать сообщения за:  Поле сортировки  
Начать новую тему Ответить на тему


Сейчас этот форум просматривают: нет зарегистрированных пользователей и гости: 0


Вы не можете начинать темы
Вы не можете отвечать на сообщения
Вы не можете редактировать свои сообщения
Вы не можете удалять свои сообщения
Вы не можете добавлять вложения

Перейти:  
cron