Начать новую тему Ответить на тему
Статистика раздачи
Размер: 504.75 МБ | Добавлен: 26 мар 2019, 21:01 | Скачали: 2
Сидеров: 8  [0 байт/сек]    Личеров: 2  [0 байт/сек]
Пред. тема | След. тема 

Автор
Сообщение

СообщениеДобавлено: 26 мар 2019, 21:01 

Ответить с цитатой 

STING
BRAND NEW DAY
Жанр: Pop/Rock
Страна-производитель диска: Germany
Год издания: 2000
Издатель (лейбл): A&M Records, Polo Music
Номер по каталогу: 490 425-2
Страна: UK
Аудиокодек: FLAC (*.flac)
Тип рипа: image+.cue
Битрейт аудио: lossless
Продолжительность: 01:17:16
Источник: собственный диск
Наличие сканов в содержимом раздачи: да
Треклист:
Код:
[color=gray]01.[/color] A Thousand Years  [color=gray](5:59)[/color]
[color=gray]02.[/color] Desert Rose  [color=gray](4:48)[/color]
[color=gray]03.[/color] Big Lie Small World  [color=gray](5:07)[/color]
[color=gray]04.[/color] After The Rain Has Fallen  [color=gray](5:05)[/color]
[color=gray]05.[/color] Perfect Love...Gone Wrong  [color=gray](5:27)[/color]
[color=gray]06.[/color] Tomorrow We'll See  [color=gray](4:49)[/color]
[color=gray]07.[/color] Prelude To The End Of The Game  [color=gray](0:21)[/color]
[color=gray]08.[/color] Fill Her Up  [color=gray](5:40)[/color]
[color=gray]09.[/color] Ghost Story  [color=gray](5:31)[/color]
[color=gray]10.[/color] Brand New Day  [color=gray](6:22)[/color]
Код:
[color=gray]11.[/color] Windmills Of Your Mind [Bonus]  [color=gray](4:19)[/color]
[color=gray]12.[/color] End Of The Game [Bonus]  [color=gray](6:36)[/color]
[color=gray]13.[/color] Invisible Sun (feat. Aswad) [Bonus]  [color=gray](4:08)[/color]
[color=gray]14.[/color] Shape Of My Heart [Bonus]  [color=gray](4:39)[/color]
[color=gray]15.[/color] Fragile [Bonus]  [color=gray](3:56)[/color]
[color=gray]16.[/color] Desert Rose (Melodic Club Mix) [Bonus]  [color=gray](4:30)[/color]
Код:
Exact Audio Copy V1.0 beta 3 from 29. August 2011
Отчёт EAC об извлечении, выполненном 13. августа 2013, 21:44
Sting / Brand New Day (Limited Edition)
Дисковод: _NEC    DVD+-RW ND-6650A   Adapter: 2  ID: 0
Режим чтения                 : Достоверность
Использование точного потока : Да
Отключение кэша аудио        : Да
Использование указателей C2  : Нет
Коррекция смещения при чтении                     : 48
Способность читать области Lead-in и Lead-out     : Нет
Заполнение пропущенных сэмплов тишиной            : Да
Удаление блоков с тишиной в начале и конце        : Нет
При вычислениях CRC использовались нулевые сэмплы : Да
Интерфейс                                         : Встроенный Win32-интерфейс для Win NT/2000
Выходной формат          : Пользовательский кодировщик
Выбранный битрейт        : 128 kBit/s
Качество                 : Высокий
Добавление ID3-тега      : Нет
Утилита сжатия           : C:\Program Files\Exact Audio Copy\Flac\flac.exe
Дополнительные параметры : -V -8 -T "Date=%year%" -T "Genre=%genre%" %source%
TOC извлечённого CD
     Трек |   Старт  | Длительность | Начальный сектор | Конечный сектор
    ---------------------------------------------------------------------
       1  |  0:00.00 |    5:58.73   |           0      |      26922
       2  |  5:58.73 |    4:47.57   |       26923      |      48504
       3  | 10:46.55 |    5:06.65   |       48505      |      71519
       4  | 15:53.45 |    5:04.70   |       71520      |      94389
       5  | 20:58.40 |    5:26.67   |       94390      |     118906
       6  | 26:25.32 |    4:49.01   |      118907      |     140582
       7  | 31:14.33 |    0:20.64   |      140583      |     142146
       8  | 31:35.22 |    5:39.54   |      142147      |     167625
       9  | 37:15.01 |    5:31.14   |      167626      |     192464
      10  | 42:46.15 |    6:21.73   |      192465      |     221112
      11  | 49:08.13 |    4:18.61   |      221113      |     240523
      12  | 53:26.74 |    6:36.16   |      240524      |     270239
      13  | 60:03.15 |    4:08.31   |      270240      |     288870
      14  | 64:11.46 |    4:38.62   |      288871      |     309782
      15  | 68:50.33 |    3:55.57   |      309783      |     327464
      16  | 72:46.15 |    4:29.49   |      327465      |     347688
Характеристики диапазона извлечения и сообщения об ошибках
Выбранный диапазон
     Имя файла H:\Rutracker\Sting - Brand New Day (Limited Edition) (2000)\Sting - Brand New Day (Limited Edition).wav
     Пиковый уровень 100.0 %
     Скорость извлечения 4.0 X
     Качество диапазона 99.9 %
     CRC теста 9E1DCBB3
     CRC копии 9E1DCBB3
     Копирование... OK
Ошибок не произошло
AccurateRip: сводка
Трек  1  точность не определена (достоверность 1)  [07189826], AccurateRip вернул [C740D4E3]  (AR v2)
Трек  2  точность не определена (достоверность 1)  [A0177F08], AccurateRip вернул [B3D3CEBA]  (AR v2)
Трек  3  точность не определена (достоверность 1)  [BA514F99], AccurateRip вернул [5B718188]  (AR v2)
Трек  4  точность не определена (достоверность 1)  [FF6894EC], AccurateRip вернул [4496A07A]  (AR v2)
Трек  5  точность не определена (достоверность 1)  [419FCC1D], AccurateRip вернул [6C824DE3]  (AR v2)
Трек  6  точность не определена (достоверность 1)  [C7951A56], AccurateRip вернул [489D53A7]  (AR v2)
Трек  7  точность не определена (достоверность 1)  [B7C5B276], AccurateRip вернул [C7C2EF84]  (AR v2)
Трек  8  точность не определена (достоверность 1)  [69389DCC], AccurateRip вернул [32AE02B8]  (AR v2)
Трек  9  точность не определена (достоверность 1)  [7BADC21A], AccurateRip вернул [D0107C28]  (AR v2)
Трек 10  точность не определена (достоверность 1)  [870EEB4B], AccurateRip вернул [60F4CF3A]  (AR v2)
Трек 11  точность не определена (достоверность 1)  [4580FA40], AccurateRip вернул [A41D98AD]  (AR v2)
Трек 12  точность не определена (достоверность 1)  [261A0E83], AccurateRip вернул [5FB60C36]  (AR v2)
Трек 13  точность не определена (достоверность 1)  [3F09751C], AccurateRip вернул [A7D26BB1]  (AR v2)
Трек 14  точность не определена (достоверность 1)  [CD83658B], AccurateRip вернул [FFF22AE1]  (AR v2)
Трек 15  точность не определена (достоверность 1)  [8BC49313], AccurateRip вернул [EE26937F]  (AR v2)
Трек 16  точность не определена (достоверность 1)  [B814BC8E], AccurateRip вернул [00821ADF]  (AR v2)
Ни один трек не прошёл проверки на точность
В вашей базе может быть иной вариант штамповки диска
Конец отчёта
==== Контрольная сумма отчёта 8E0439A0B28D37A7A7EBC4CF889FA4E53E5FEEDDD9BC8A432AA7343BA9ECADBE ====
Код:
-----------------------
DON'T MODIFY THIS FILE
-----------------------
PERFORMER: auCDtect Task Manager, ver. 1.6.0 RC1 build 1.6.0.1
Copyright (c) 2008-2010 y-soft. All rights reserved
[url=http://y-soft.org]http://y-soft.org[/url]
ANALYZER: auCDtect: CD records authenticity detector, version 0.8.2
Copyright (c) 2004 Oleg Berngardt. All rights reserved.
Copyright (c) 2004 Alexander Djourik. All rights reserved.
FILE: Sting - Brand New Day (Limited Edition).flac
  Size: 510757552 Hash: 0A32E314954FA4AB13FF0D5EF7898F7A Accuracy: -m0
  Conclusion: CDDA 99%
  Signature: C518C5A3B55EBF7963FF35AE1D3211DF789B6559
Английский певец, басист, композитор Стинг (Sting) (настоящее имя Гордон Самнер) родился в Уоллсенде, Англия.
Сольная карьера Стинга началась в 1982 году, за два года до распада группы Police, в которой он был вокалистом и басистом.
В 1985 году Стинг создал свою группу Blue Turtles, с ней он записал свой первый сольный альбом "Dream Of The Blue Turtles", три вещи из которого стали международными хитами.
Стинг - весьма уважаемый композитор и исполнитель, записываться и выступать с которым почитают за честь многие известные музыканты. Он также снимается в кино и участвует в различных гуманитарных акциях.
Что касается его киноработ, то его дебютом было участие в фильме "Квадрофония", снятом в 1979 году, и после этого фильма Стинг стал своим человеком в кинематографе. Можно отметить его роли в таких фильмах, как "Дюна" Дэвида Линча, "Изобилие" Фреда Шеписи, "Грозовой понедельник" Майка Фиггиса, "Карты, деньги, два ствола" Гая Ричи.
Расширенное переиздание одного из самых популярных релизов Стинга 1999 г. Brand New Day
Релиз полностью готов к воспроизведению в аудиоплеере foobar2000
При скачивании, если необходимо, переименуйте папку, в которой будет находиться альбом
Оставайтесь на раздаче и наслаждайтесь любимой музыкой!
Не забываем говорить "Спасибо"!

Правила, инструкции, FAQ!!!
Торрент  Добавлен [26 мар 2019, 21:01] Скачать торрент Магнет ссылка
Скачать торрент
[ Размер 20.94 КБ / Просмотров 12 ]

Статус
Проверен 
 
Размер  504.75 МБ
Приватный: Нет (DHT включён)
.torrent скачан  2
 


     Отправить личное сообщение
   
Страница 1 из 1
Показать сообщения за:  Поле сортировки  
Начать новую тему Ответить на тему


Сейчас этот форум просматривают: нет зарегистрированных пользователей и гости: 0


Вы не можете начинать темы
Вы не можете отвечать на сообщения
Вы не можете редактировать свои сообщения
Вы не можете удалять свои сообщения
Вы не можете добавлять вложения

Перейти:  
cron