Начать новую тему Ответить на тему
Статистика раздачи
Размер: 307.17 МБ | Добавлен: 26 мар 2019, 18:40 | Скачали: 0
Сидеров: 0  [0 байт/сек]    Личеров: 0  [0 байт/сек]
Пред. тема | След. тема 

Автор
Сообщение

СообщениеДобавлено: 26 мар 2019, 18:40 

Ответить с цитатой 

Stefanie Werger / Mit uns die Zeit
Жанр: Pop-Rock
Страна-производитель диска (релиза): EU
Год издания: 1998
Издатель (лейбл): BMG Ariola
Номер по каталогу: 74321607642
Страна исполнителя (группы): Austria
Аудиокодек: FLAC (*.flac)
Тип рипа: tracks+.cue
Битрейт аудио: lossless
Продолжительность: 0:45:55.
Источник (релизер): clustert
Наличие сканов в содержимом раздачи: да
Треклист:
01. Keine Zeit [0:03:48.29]
02. Soiz auf da Haut [0:04:15.46]
03. Samba Samba [0:03:28.34]
04. Bleib der du bist [0:04:06.59]
05. Kater Sam [0:03:55.30]
06. Tua ma net weh [0:03:27.39]
07. 2000 [0:03:48.39]
08. Du tust mir gut [0:03:40.22]
09. Andersrum [0:03:37.32]
10. Asche zu Asche [0:03:58.70]
11. Wien [0:03:31.55]
12. Lampenfieber [0:04:16.03]
Код:
Exact Audio Copy V1.0 beta 3 from 29. August 2011
Отчёт EAC об извлечении, выполненном 13. июня 2015, 13:49
Stefanie Werger / Mit uns die Zeit
Дисковод: ASUS    DVD-E616A3T   Adapter: 5  ID: 0
Режим чтения                 : Достоверность
Использование точного потока : Да
Отключение кэша аудио        : Да
Использование указателей C2  : Нет
Коррекция смещения при чтении                     : 6
Способность читать области Lead-in и Lead-out     : Нет
Заполнение пропущенных сэмплов тишиной            : Да
Удаление блоков с тишиной в начале и конце        : Нет
При вычислениях CRC использовались нулевые сэмплы : Да
Интерфейс                                         : Встроенный Win32-интерфейс для Win NT/2000
Обработка зазоров                                 : Добавлено к предыдущему треку
Выходной формат          : Пользовательский кодировщик
Выбранный битрейт        : 128 kBit/s
Качество                 : Высокий
Добавление ID3-тега      : Нет
Утилита сжатия           : C:\Program Files\Exact Audio Copy\Flac\flac.exe
Дополнительные параметры :  -V -8 -T "Genre=%genre%" -T "Artist=%artist%" -T "Title=%title%" -T "Album=%albumtitle%" -T "Date=%year%" -T "Tracknumber=%tracknr%" -T "Comment=EAC1.0b2 FLAC -8" %source%
TOC извлечённого CD
     Трек |   Старт  | Длительность | Начальный сектор | Конечный сектор
    ---------------------------------------------------------------------
       1  |  0:00.00 |    3:48.29   |           0      |      17128
       2  |  3:48.29 |    4:15.46   |       17129      |      36299
       3  |  8:04.00 |    3:28.34   |       36300      |      51933
       4  | 11:32.34 |    4:06.59   |       51934      |      70442
       5  | 15:39.18 |    3:55.30   |       70443      |      88097
       6  | 19:34.48 |    3:27.39   |       88098      |     103661
       7  | 23:02.12 |    3:48.39   |      103662      |     120800
       8  | 26:50.51 |    3:40.22   |      120801      |     137322
       9  | 30:30.73 |    3:37.32   |      137323      |     153629
      10  | 34:08.30 |    3:58.70   |      153630      |     171549
      11  | 38:07.25 |    3:31.55   |      171550      |     187429
      12  | 41:39.05 |    4:16.03   |      187430      |     206632
Трек  1
     Имя файла R:\Раздача 48\Stefanie Werger - 1998 - Mit uns die Zeit\01 Keine Zeit.wav
     Длина предзазора  0:00:02.00
     Пиковый уровень 97.7 %
     Скорость извлечения 1.5 X
     Качество трека 99.9 %
     CRC теста 066CA94F
     CRC копии 066CA94F
     Точное извлечение (достоверность 5)  [0D987AD6]  (AR v1)
     Копирование... OK
Трек  2
     Имя файла R:\Раздача 48\Stefanie Werger - 1998 - Mit uns die Zeit\02 Soiz auf da Haut.wav
     Длина предзазора  0:00:02.45
     Пиковый уровень 97.7 %
     Скорость извлечения 1.5 X
     Качество трека 99.9 %
     CRC теста 21EF13E5
     CRC копии 21EF13E5
     Точное извлечение (достоверность 5)  [B66DBB48]  (AR v1)
     Копирование... OK
Трек  3
     Имя файла R:\Раздача 48\Stefanie Werger - 1998 - Mit uns die Zeit\03 Samba Samba.wav
     Длина предзазора  0:00:01.45
     Пиковый уровень 97.7 %
     Скорость извлечения 1.5 X
     Качество трека 99.9 %
     CRC теста 5922F29C
     CRC копии 5922F29C
     Точное извлечение (достоверность 5)  [B6301EFF]  (AR v1)
     Копирование... OK
Трек  4
     Имя файла R:\Раздача 48\Stefanie Werger - 1998 - Mit uns die Zeit\04 Bleib der du bist.wav
     Длина предзазора  0:00:03.45
     Пиковый уровень 97.7 %
     Скорость извлечения 2.1 X
     Качество трека 100.0 %
     CRC теста 18AFB7D4
     CRC копии 18AFB7D4
     Точное извлечение (достоверность 5)  [1F32166B]  (AR v1)
     Копирование... OK
Трек  5
     Имя файла R:\Раздача 48\Stefanie Werger - 1998 - Mit uns die Zeit\05 Kater Sam.wav
     Длина предзазора  0:00:01.45
     Пиковый уровень 97.7 %
     Скорость извлечения 1.9 X
     Качество трека 99.9 %
     CRC теста 13221090
     CRC копии 13221090
     Точное извлечение (достоверность 5)  [1817B59D]  (AR v1)
     Копирование... OK
Трек  6
     Имя файла R:\Раздача 48\Stefanie Werger - 1998 - Mit uns die Zeit\06 Tua ma net weh.wav
     Длина предзазора  0:00:03.45
     Пиковый уровень 97.7 %
     Скорость извлечения 2.3 X
     Качество трека 100.0 %
     CRC теста 54101CDB
     CRC копии 54101CDB
     Точное извлечение (достоверность 5)  [E6EDC15C]  (AR v1)
     Копирование... OK
Трек  7
     Имя файла R:\Раздача 48\Stefanie Werger - 1998 - Mit uns die Zeit\07 2000.wav
     Длина предзазора  0:00:03.45
     Пиковый уровень 97.7 %
     Скорость извлечения 2.5 X
     Качество трека 100.0 %
     CRC теста 084E701A
     CRC копии 084E701A
     Точное извлечение (достоверность 5)  [491A9EAD]  (AR v1)
     Копирование... OK
Трек  8
     Имя файла R:\Раздача 48\Stefanie Werger - 1998 - Mit uns die Zeit\08 Du tust mir gut.wav
     Длина предзазора  0:00:02.45
     Пиковый уровень 97.7 %
     Скорость извлечения 2.6 X
     Качество трека 100.0 %
     CRC теста 71E179F2
     CRC копии 71E179F2
     Точное извлечение (достоверность 5)  [1748AFE2]  (AR v1)
     Копирование... OK
Трек  9
     Имя файла R:\Раздача 48\Stefanie Werger - 1998 - Mit uns die Zeit\09 Andersrum.wav
     Длина предзазора  0:00:02.45
     Пиковый уровень 97.2 %
     Скорость извлечения 2.2 X
     Качество трека 99.9 %
     CRC теста 322AC392
     CRC копии 322AC392
     Точное извлечение (достоверность 5)  [3365FFC7]  (AR v1)
     Копирование... OK
Трек 10
     Имя файла R:\Раздача 48\Stefanie Werger - 1998 - Mit uns die Zeit\10 Asche zu Asche.wav
     Длина предзазора  0:00:02.44
     Пиковый уровень 97.7 %
     Скорость извлечения 2.8 X
     Качество трека 100.0 %
     CRC теста 3643DB73
     CRC копии 3643DB73
     Точное извлечение (достоверность 5)  [3DE465B7]  (AR v1)
     Копирование... OK
Трек 11
     Имя файла R:\Раздача 48\Stefanie Werger - 1998 - Mit uns die Zeit\11 Wien.wav
     Длина предзазора  0:00:01.73
     Пиковый уровень 97.7 %
     Скорость извлечения 2.9 X
     Качество трека 100.0 %
     CRC теста 02555EA6
     CRC копии 02555EA6
     Точное извлечение (достоверность 5)  [B91AE4CB]  (AR v1)
     Копирование... OK
Трек 12
     Имя файла R:\Раздача 48\Stefanie Werger - 1998 - Mit uns die Zeit\12 Lampenfieber.wav
     Длина предзазора  0:00:02.45
     Пиковый уровень 97.7 %
     Скорость извлечения 3.0 X
     Качество трека 100.0 %
     CRC теста F5EB33C9
     CRC копии F5EB33C9
     Точное извлечение (достоверность 5)  [07ABC140]  (AR v1)
     Копирование... OK
Все треки извлечены точно
Ошибок не произошло
Конец отчёта
==== Контрольная сумма отчёта 4BB82C0C9FC62DB4AB61BC6280FEF0E6EAD0EF70FF42744A58C41DF7516389EE ====
Код:
REM GENRE Other
REM DATE 1998
REM DISCID 950AC30C
REM COMMENT "ExactAudioCopy v1.0b3"
PERFORMER "Stefanie Werger"
TITLE "Mit uns die Zeit"
FILE "01 Keine Zeit.wav" WAVE
  TRACK 01 AUDIO
    TITLE "Keine Zeit"
    PERFORMER "Stefanie Werger"
    ISRC ATB159800354
    INDEX 01 00:00:00
  TRACK 02 AUDIO
    TITLE "Soiz auf da Haut"
    PERFORMER "Stefanie Werger"
    ISRC ATB159800353
    INDEX 00 03:45:59
FILE "02 Soiz auf da Haut.wav" WAVE
    INDEX 01 00:00:00
  TRACK 03 AUDIO
    TITLE "Samba Samba"
    PERFORMER "Stefanie Werger"
    ISRC ATB159800351
    INDEX 00 04:14:01
FILE "03 Samba Samba.wav" WAVE
    INDEX 01 00:00:00
  TRACK 04 AUDIO
    TITLE "Bleib der du bist"
    PERFORMER "Stefanie Werger"
    ISRC ATB159800355
    INDEX 00 03:24:64
FILE "04 Bleib der du bist.wav" WAVE
    INDEX 01 00:00:00
  TRACK 05 AUDIO
    TITLE "Kater Sam"
    PERFORMER "Stefanie Werger"
    ISRC ATB159800356
    INDEX 00 04:05:14
FILE "05 Kater Sam.wav" WAVE
    INDEX 01 00:00:00
  TRACK 06 AUDIO
    TITLE "Tua ma net weh"
    PERFORMER "Stefanie Werger"
    ISRC ATB159800357
    INDEX 00 03:51:60
FILE "06 Tua ma net weh.wav" WAVE
    INDEX 01 00:00:00
  TRACK 07 AUDIO
    TITLE "2000"
    PERFORMER "Stefanie Werger"
    ISRC ATB159800358
    INDEX 00 03:23:69
FILE "07 2000.wav" WAVE
    INDEX 01 00:00:00
  TRACK 08 AUDIO
    TITLE "Du tust mir gut"
    PERFORMER "Stefanie Werger"
    ISRC ATB159800359
    INDEX 00 03:45:69
FILE "08 Du tust mir gut.wav" WAVE
    INDEX 01 00:00:00
  TRACK 09 AUDIO
    TITLE "Andersrum"
    PERFORMER "Stefanie Werger"
    ISRC ATB159800360
    INDEX 00 03:37:52
FILE "09 Andersrum.wav" WAVE
    INDEX 01 00:00:00
  TRACK 10 AUDIO
    TITLE "Asche zu Asche"
    PERFORMER "Stefanie Werger"
    ISRC ATB159800361
    INDEX 00 03:34:63
FILE "10 Asche zu Asche.wav" WAVE
    INDEX 01 00:00:00
  TRACK 11 AUDIO
    TITLE "Wien"
    PERFORMER "Stefanie Werger"
    ISRC ATB159800362
    INDEX 00 03:56:72
FILE "11 Wien.wav" WAVE
    INDEX 01 00:00:00
  TRACK 12 AUDIO
    TITLE "Lampenfieber"
    PERFORMER "Stefanie Werger"
    ISRC ATB159800363
    INDEX 00 03:29:10
FILE "12 Lampenfieber.wav" WAVE
    INDEX 01 00:00:00
Правила, инструкции, FAQ!!!
Торрент  Добавлен [26 мар 2019, 18:40] Скачать торрент Магнет ссылка
Скачать торрент
[ Размер 14.09 КБ / Просмотров 2 ]

Статус
Проверен 
 
Размер  307.17 МБ
Приватный: Нет (DHT включён)
.torrent скачан  0
 


     Отправить личное сообщение
   
Страница 1 из 1
Показать сообщения за:  Поле сортировки  
Начать новую тему Ответить на тему


Сейчас этот форум просматривают: нет зарегистрированных пользователей и гости: 0


Вы не можете начинать темы
Вы не можете отвечать на сообщения
Вы не можете редактировать свои сообщения
Вы не можете удалять свои сообщения
Вы не можете добавлять вложения

Перейти:  
cron