Начать новую тему Ответить на тему
Статистика раздачи
Размер: 313.41 МБ | Добавлен: 26 мар 2019, 19:28 | Скачали: 0
Сидеров: 0  [0 байт/сек]    Личеров: 0  [0 байт/сек]
Пред. тема | След. тема 

Автор
Сообщение

СообщениеДобавлено: 26 мар 2019, 19:28 

Ответить с цитатой 

Bonzo Dog Band / The Doughnut In Granny's Greenhouse
Жанр: Pop Rock, Spoof, Comedy,
Носитель: CD
Страна-производитель диска (релиза): ВБ
Год издания: 2007
Издатель (лейбл): EMI
Номер по каталогу: 0946 3 87890 2 4
Страна исполнителя (группы): ВБ
Аудиокодек: WavPack (*.wv)
Тип рипа: tracks+.cue
Битрейт аудио: lossless
Продолжительность: 52:49
Источник (релизер): shantiq
Наличие сканов в содержимом раздачи: нет
Треклист:
01- We Are Normal
02- Postcard
03- Beautiful Zelda
04- Can Blue Men Sing The Whites
05- Hello Mabel
06- Karma Sutra
07- Humanoid Boogie
08- The Trouser Press
09- My Pink Half Of The Drainpipe
10- Rockaliser Baby
11- Rhinocratic Oaths
12- Eleven Mustachioed Daughters
13- Blue Suede Shoes
14- "Bang Bang" (My Baby Shot Me Down)
15- Alley Oop (Girls Version)
16- Canyons Of Your Mind (Single Version)
17- Mr Apollo (German Version)
Код:
Exact Audio Copy V1.3 from 2. September 2016
EAC extraction logfile from 27. March 2017, 12:13
Bonzo Dog Band / The Doughnut In Granny's Greenhouse (2007 release)
Used drive  : TSSTcorpBDDVDW SE-506BB   Adapter: 1  ID: 0
Read mode               : Secure
Utilize accurate stream : Yes
Defeat audio cache      : Yes
Make use of C2 pointers : No
Read offset correction                      : 6
Overread into Lead-In and Lead-Out          : No
Fill up missing offset samples with silence : Yes
Delete leading and trailing silent blocks   : No
Null samples used in CRC calculations       : Yes
Used interface                              : Native Win32 interface for Win NT & 2000
Gap handling                                : Appended to previous track
Used output format              : User Defined Encoder
Selected bitrate                : 768 kBit/s
Quality                         : High
Add ID3 tag                     : No
Command line compressor         : C:\Program Files (x86)\Exact Audio Copy\Flac\wavpack.exe
Additional command line options :  -hmx3 -w "Artist=%artist%" -w "Title=%title%" -w "Album=%albumtitle%" -w "Year=%year%" -w "Genre=%genre%" -w "Tracknumber=%tracknr%" -w "Performer=%albuminterpret%" -w "Composer=%composer%" %haslyrics%--tag-from-file=lyrics="%lyricsfile%"%haslyrics% -w "Albumartist=%albumartist%" -w "Discnumber=%cdnumber%" -w "Totaldiscs=%totalcds%" -w "Totaltracks=%numtracks%" -w "Comment=%comment%" %source% %dest%
TOC of the extracted CD
     Track |   Start  |  Length  | Start sector | End sector
    ---------------------------------------------------------
        1  |  0:00.00 |  4:49.53 |         0    |    21727
        2  |  4:49.53 |  4:23.66 |     21728    |    41518
        3  |  9:13.44 |  2:25.35 |     41519    |    52428
        4  | 11:39.04 |  2:49.51 |     52429    |    65154
        5  | 14:28.55 |  2:46.02 |     65155    |    77606
        6  | 17:14.57 |  0:40.74 |     77607    |    80680
        7  | 17:55.56 |  3:03.57 |     80681    |    94462
        8  | 20:59.38 |  2:18.44 |     94463    |   104856
        9  | 23:18.07 |  3:34.04 |    104857    |   120910
       10  | 26:52.11 |  3:32.22 |    120911    |   136832
       11  | 30:24.33 |  3:22.39 |    136833    |   152021
       12  | 33:46.72 |  4:59.36 |    152022    |   174482
       13  | 38:46.33 |  1:38.05 |    174483    |   181837
       14  | 40:24.38 |  2:40.04 |    181838    |   193841
       15  | 43:04.42 |  2:32.13 |    193842    |   205254
       16  | 45:36.55 |  3:02.40 |    205255    |   218944
       17  | 48:39.20 |  4:10.08 |    218945    |   237702
Track  1
     Filename Z:\home\shantiq\Music\Bonzo Dog Band-The Doughnut In Granny's Greenhouse\01 We Are Normal.wav
     Pre-gap length  0:00:02.00
     Peak level 99.1 %
     Extraction speed 1.3 X
     Track quality 100.0 %
     Test CRC 67CC944C
     Copy CRC 67CC944C
     Accurately ripped (confidence 9)  [6EDF5B7F]  (AR v2)
     Copy OK
Track  2
     Filename Z:\home\shantiq\Music\Bonzo Dog Band-The Doughnut In Granny's Greenhouse\02 Postcard.wav
     Peak level 99.1 %
     Extraction speed 1.4 X
     Track quality 100.0 %
     Test CRC 3BDE0729
     Copy CRC 3BDE0729
     Accurately ripped (confidence 9)  [55E90499]  (AR v2)
     Copy OK
Track  3
     Filename Z:\home\shantiq\Music\Bonzo Dog Band-The Doughnut In Granny's Greenhouse\03 Beautiful Zelda.wav
     Pre-gap length  0:00:03.06
     Peak level 99.2 %
     Extraction speed 1.4 X
     Track quality 100.0 %
     Test CRC 7108DCD6
     Copy CRC 7108DCD6
     Accurately ripped (confidence 9)  [33BCC414]  (AR v2)
     Copy OK
Track  4
     Filename Z:\home\shantiq\Music\Bonzo Dog Band-The Doughnut In Granny's Greenhouse\04 Can Blue Men Sing The Whites.wav
     Pre-gap length  0:00:01.26
     Peak level 99.2 %
     Extraction speed 1.4 X
     Track quality 100.0 %
     Test CRC 6456E047
     Copy CRC 6456E047
     Accurately ripped (confidence 9)  [B51C386B]  (AR v2)
     Copy OK
Track  5
     Filename Z:\home\shantiq\Music\Bonzo Dog Band-The Doughnut In Granny's Greenhouse\05 Hello Mabel.wav
     Pre-gap length  0:00:01.69
     Peak level 99.1 %
     Extraction speed 1.5 X
     Track quality 100.0 %
     Test CRC 9F371D7E
     Copy CRC 9F371D7E
     Accurately ripped (confidence 9)  [96A96095]  (AR v2)
     Copy OK
Track  6
     Filename Z:\home\shantiq\Music\Bonzo Dog Band-The Doughnut In Granny's Greenhouse\06 Karma Sutra.wav
     Pre-gap length  0:00:00.28
     Peak level 97.9 %
     Extraction speed 1.0 X
     Track quality 100.0 %
     Test CRC EFFB7B79
     Copy CRC EFFB7B79
     Accurately ripped (confidence 9)  [DDB6E0C8]  (AR v2)
     Copy OK
Track  7
     Filename Z:\home\shantiq\Music\Bonzo Dog Band-The Doughnut In Granny's Greenhouse\07 Humanoid Boogie.wav
     Pre-gap length  0:00:01.42
     Peak level 99.1 %
     Extraction speed 1.6 X
     Track quality 100.0 %
     Test CRC C4499410
     Copy CRC C4499410
     Accurately ripped (confidence 9)  [5C2B7572]  (AR v2)
     Copy OK
Track  8
     Filename Z:\home\shantiq\Music\Bonzo Dog Band-The Doughnut In Granny's Greenhouse\08 The Trouser Press.wav
     Pre-gap length  0:00:00.53
     Peak level 98.7 %
     Extraction speed 1.6 X
     Track quality 100.0 %
     Test CRC AE5BDE2F
     Copy CRC AE5BDE2F
     Accurately ripped (confidence 9)  [8C3B23E4]  (AR v2)
     Copy OK
Track  9
     Filename Z:\home\shantiq\Music\Bonzo Dog Band-The Doughnut In Granny's Greenhouse\09 My Pink Half Of The Drainpipe.wav
     Peak level 99.1 %
     Extraction speed 1.8 X
     Track quality 100.0 %
     Test CRC 7C607F7F
     Copy CRC 7C607F7F
     Accurately ripped (confidence 9)  [56AF1EA8]  (AR v2)
     Copy OK
Track 10
     Filename Z:\home\shantiq\Music\Bonzo Dog Band-The Doughnut In Granny's Greenhouse\10 Rockaliser Baby.wav
     Pre-gap length  0:00:02.39
     Peak level 97.3 %
     Extraction speed 1.9 X
     Track quality 100.0 %
     Test CRC A64A29B0
     Copy CRC A64A29B0
     Accurately ripped (confidence 9)  [573F3C93]  (AR v2)
     Copy OK
Track 11
     Filename Z:\home\shantiq\Music\Bonzo Dog Band-The Doughnut In Granny's Greenhouse\11 Rhinocratic Oaths.wav
     Pre-gap length  0:00:03.01
     Peak level 99.1 %
     Extraction speed 1.7 X
     Track quality 99.9 %
     Test CRC 71EFA2CC
     Copy CRC 71EFA2CC
     Accurately ripped (confidence 9)  [E9F77322]  (AR v2)
     Copy OK
Track 12
     Filename Z:\home\shantiq\Music\Bonzo Dog Band-The Doughnut In Granny's Greenhouse\12 Eleven Mustachioed Daughters.wav
     Pre-gap length  0:00:02.24
     Peak level 99.1 %
     Extraction speed 2.1 X
     Track quality 100.0 %
     Test CRC 6988AA0E
     Copy CRC 6988AA0E
     Accurately ripped (confidence 9)  [6426673B]  (AR v2)
     Copy OK
Track 13
     Filename Z:\home\shantiq\Music\Bonzo Dog Band-The Doughnut In Granny's Greenhouse\13 Blue Suede Shoes (Previously Unreleased).wav
     Pre-gap length  0:00:02.57
     Peak level 98.7 %
     Extraction speed 1.8 X
     Track quality 100.0 %
     Test CRC ED00FE5B
     Copy CRC ED00FE5B
     Accurately ripped (confidence 9)  [36BB324B]  (AR v2)
     Copy OK
Track 14
     Filename Z:\home\shantiq\Music\Bonzo Dog Band-The Doughnut In Granny's Greenhouse\14 Bang Bang (Previously Unreleased).wav
     Pre-gap length  0:00:01.14
     Peak level 99.1 %
     Extraction speed 2.0 X
     Track quality 100.0 %
     Test CRC DF2EC862
     Copy CRC DF2EC862
     Accurately ripped (confidence 9)  [A139F8F8]  (AR v2)
     Copy OK
Track 15
     Filename Z:\home\shantiq\Music\Bonzo Dog Band-The Doughnut In Granny's Greenhouse\15 Alley Oop (Girls Version).wav
     Pre-gap length  0:00:01.09
     Peak level 81.9 %
     Extraction speed 2.1 X
     Track quality 100.0 %
     Test CRC CF4172C7
     Copy CRC CF4172C7
     Accurately ripped (confidence 9)  [0ED5958D]  (AR v2)
     Copy OK
Track 16
     Filename Z:\home\shantiq\Music\Bonzo Dog Band-The Doughnut In Granny's Greenhouse\16 Canyons Of Your Mind (Single Version).wav
     Pre-gap length  0:00:00.66
     Peak level 98.4 %
     Extraction speed 2.2 X
     Track quality 100.0 %
     Test CRC 6B9CE3CA
     Copy CRC 6B9CE3CA
     Accurately ripped (confidence 9)  [461CE5E0]  (AR v2)
     Copy OK
Track 17
     Filename Z:\home\shantiq\Music\Bonzo Dog Band-The Doughnut In Granny's Greenhouse\17 Mr Apollo (German Version).wav
     Pre-gap length  0:00:00.47
     Peak level 99.0 %
     Extraction speed 2.4 X
     Track quality 100.0 %
     Test CRC 96F60CB8
     Copy CRC 96F60CB8
     Accurately ripped (confidence 9)  [F8005329]  (AR v2)
     Copy OK
All tracks accurately ripped
No errors occurred
End of status report
Код:
REM GENRE Rock
REM DATE 2007
REM DISCID D90C6111
REM COMMENT "ExactAudioCopy v1.3"
CATALOG 0094638789024
PERFORMER "Bonzo Dog Band"
TITLE "The Doughnut In Granny's Greenhouse (2007 release)"
REM COMPOSER ""
FILE "01 We Are Normal.wav" WAVE
  TRACK 01 AUDIO
    TITLE "We Are Normal"
    PERFORMER "Bonzo Dog Band"
    REM COMPOSER ""
    ISRC GBAYE0701020
    INDEX 01 00:00:00
FILE "02 Postcard.wav" WAVE
  TRACK 02 AUDIO
    TITLE "Postcard"
    PERFORMER "Bonzo Dog Band"
    REM COMPOSER ""
    ISRC GBAYE0701021
    INDEX 01 00:00:00
  TRACK 03 AUDIO
    TITLE "Beautiful Zelda"
    PERFORMER "Bonzo Dog Band"
    REM COMPOSER ""
    ISRC GBAYE0701022
    INDEX 00 04:20:60
FILE "03 Beautiful Zelda.wav" WAVE
    INDEX 01 00:00:00
  TRACK 04 AUDIO
    TITLE "Can Blue Men Sing The Whites"
    PERFORMER "Bonzo Dog Band"
    REM COMPOSER ""
    ISRC GBAYE0701023
    INDEX 00 02:24:09
FILE "04 Can Blue Men Sing The Whites.wav" WAVE
    INDEX 01 00:00:00
  TRACK 05 AUDIO
    TITLE "Hello Mabel"
    PERFORMER "Bonzo Dog Band"
    REM COMPOSER ""
    ISRC GBAYE0701029
    INDEX 00 02:47:57
FILE "05 Hello Mabel.wav" WAVE
    INDEX 01 00:00:00
  TRACK 06 AUDIO
    TITLE "Karma Sutra"
    PERFORMER "Bonzo Dog Band"
    REM COMPOSER ""
    ISRC GBAYE0701030
    INDEX 00 02:45:49
FILE "06 Karma Sutra.wav" WAVE
    INDEX 01 00:00:00
  TRACK 07 AUDIO
    TITLE "Humanoid Boogie"
    PERFORMER "Bonzo Dog Band"
    REM COMPOSER ""
    ISRC GBAYE0701031
    INDEX 00 00:39:32
FILE "07 Humanoid Boogie.wav" WAVE
    INDEX 01 00:00:00
  TRACK 08 AUDIO
    TITLE "The Trouser Press"
    PERFORMER "Bonzo Dog Band"
    REM COMPOSER ""
    ISRC GBAYE0701032
    INDEX 00 03:03:04
FILE "08 The Trouser Press.wav" WAVE
    INDEX 01 00:00:00
FILE "09 My Pink Half Of The Drainpipe.wav" WAVE
  TRACK 09 AUDIO
    TITLE "My Pink Half Of The Drainpipe"
    PERFORMER "Bonzo Dog Band"
    REM COMPOSER ""
    ISRC GBAYE0701033
    INDEX 01 00:00:00
  TRACK 10 AUDIO
    TITLE "Rockaliser Baby"
    PERFORMER "Bonzo Dog Band"
    REM COMPOSER ""
    ISRC GBAYE0701034
    INDEX 00 03:31:40
FILE "10 Rockaliser Baby.wav" WAVE
    INDEX 01 00:00:00
  TRACK 11 AUDIO
    TITLE "Rhinocratic Oaths"
    PERFORMER "Bonzo Dog Band"
    REM COMPOSER ""
    ISRC GBAYE0701035
    INDEX 00 03:29:21
FILE "11 Rhinocratic Oaths.wav" WAVE
    INDEX 01 00:00:00
  TRACK 12 AUDIO
    TITLE "Eleven Mustachioed Daughters"
    PERFORMER "Bonzo Dog Band"
    REM COMPOSER ""
    ISRC GBAYE0701036
    INDEX 00 03:20:15
FILE "12 Eleven Mustachioed Daughters.wav" WAVE
    INDEX 01 00:00:00
  TRACK 13 AUDIO
    TITLE "Blue Suede Shoes (Previously Unreleased)"
    PERFORMER "Bonzo Dog Band"
    REM COMPOSER ""
    ISRC GBAYE0702278
    INDEX 00 04:56:54
FILE "13 Blue Suede Shoes (Previously Unreleased).wav" WAVE
    INDEX 01 00:00:00
  TRACK 14 AUDIO
    TITLE "Bang Bang (Previously Unreleased)"
    PERFORMER "Bonzo Dog Band"
    REM COMPOSER ""
    ISRC GBAYE0701037
    INDEX 00 01:36:66
FILE "14 Bang Bang (Previously Unreleased).wav" WAVE
    INDEX 01 00:00:00
  TRACK 15 AUDIO
    TITLE "Alley Oop (Girls Version)"
    PERFORMER "Bonzo Dog Band"
    REM COMPOSER ""
    ISRC GBAYE0701038
    INDEX 00 02:38:70
FILE "15 Alley Oop (Girls Version).wav" WAVE
    INDEX 01 00:00:00
  TRACK 16 AUDIO
    TITLE "Canyons Of Your Mind (Single Version)"
    PERFORMER "Bonzo Dog Band"
    REM COMPOSER ""
    ISRC GBAYE0701039
    INDEX 00 02:31:22
FILE "16 Canyons Of Your Mind (Single Version).wav" WAVE
    INDEX 01 00:00:00
  TRACK 17 AUDIO
    TITLE "Mr Apollo (German Version)"
    PERFORMER "Bonzo Dog Band"
    REM COMPOSER ""
    ISRC GBAYE0701041
    INDEX 00 03:01:68
FILE "17 Mr Apollo (German Version).wav" WAVE
    INDEX 01 00:00:00
Доп. информация: https://www.discogs.com/Bonzo-Dog-Band-The-Doughnut-In-Grannys-Greenhouse/release/1091842
Правила, инструкции, FAQ!!!
Торрент  Добавлен [26 мар 2019, 19:28] Скачать торрент Магнет ссылка
Скачать торрент
[ Размер 50.74 КБ / Просмотров 1 ]

Статус
Проверен 
 
Размер  313.41 МБ
Приватный: Нет (DHT включён)
.torrent скачан  0
 


     Отправить личное сообщение
   
Страница 1 из 1
Показать сообщения за:  Поле сортировки  
Начать новую тему Ответить на тему


Сейчас этот форум просматривают: нет зарегистрированных пользователей и гости: 0


Вы не можете начинать темы
Вы не можете отвечать на сообщения
Вы не можете редактировать свои сообщения
Вы не можете удалять свои сообщения
Вы не можете добавлять вложения

Перейти:  
cron