Начать новую тему Ответить на тему
Статистика раздачи
Размер: 310.47 МБ | Добавлен: 26 мар 2019, 20:10 | Скачали: 11
Сидеров: 3  [0 байт/сек]    Личеров: 0  [0 байт/сек]
Пред. тема | След. тема 

Автор
Сообщение

СообщениеДобавлено: 26 мар 2019, 20:10 

Ответить с цитатой 

Sparks - Exotic Creatures of the Deep
Жанр: Pop-Rock
Год выпуска диска: 2008
Аудио кодек: FLAC
Тип рипа: image+.cue
Продолжительность: 50:04
Трэклист:
01. Intro
02. Good Morning
03. Strange Animal
04. I Can't Believe That You Would
05. Let The Monkey Drive
06. Intro Reprise
07. I've Never Been High
08. (She Got Me) Pregnant
09. Lighten Up, Morrissey
10. This Is The Renaissance
11. The Director Never Yelled 'Cut'
12. Photoshop
13. Likeable
Код:
Exact Audio Copy V0.99 prebeta 3 from 28. July 2007
Отчёт EAC об извлечении, выполненном 19. января 2009, 11:57
Sparks / Exotic Creatures Of The Deep
Дисковод: PLEXTOR DVDR   PX-760A   Adapter: 1  ID: 0
Режим чтения                 : Достоверность
Использование точного потока : Да
Отключение кэша аудио        : Да
Использование указателей C2  : Нет
Коррекция смещения при чтении                     : 30
Способность читать области Lead-in и Lead-out     : Нет
Заполнение пропущенных сэмплов тишиной            : Да
Удаление блоков с тишиной в начале и конце        : Нет
При вычислениях CRC использовались нулевые сэмплы : Да
Интерфейс                                         : Установленный внешний ASPI-интерфейс
Выходной формат          : Пользовательский кодировщик
Выбранный битрейт        : 768 kBit/s
Качество                 : Высокий
Добавление ID3-тэга      : Нет
Утилита сжатия           : C:\Program Files\Exact Audio Copy\FLAC\FLAC.EXE
Дополнительные параметры : -6 -V -T "ARTIST=%a" -T "TITLE=%t" -T "ALBUM=%g" -T "DATE=%y" -T "TRACKNUMBER=%n" -T "GENRE=%m" -T "COMMENT=%e" %s -o %d
TOC извлечённого CD
     Трек |   Старт  | Длительность | Начальный сектор | Конечный сектор
    ---------------------------------------------------------------------
       1  |  0:00.00 |    1:02.07   |           0      |       4656
       2  |  1:02.07 |    3:53.16   |        4657      |      22147
       3  |  4:55.23 |    5:45.72   |       22148      |      48094
       4  | 10:41.20 |    3:54.15   |       48095      |      65659
       5  | 14:35.35 |    4:09.45   |       65660      |      84379
       6  | 18:45.05 |    0:24.25   |       84380      |      86204
       7  | 19:09.30 |    4:31.20   |       86205      |     106549
       8  | 23:40.50 |    4:13.49   |      106550      |     125573
       9  | 27:54.24 |    4:14.47   |      125574      |     144670
      10  | 32:08.71 |    3:45.38   |      144671      |     161583
      11  | 35:54.34 |    3:54.15   |      161584      |     179148
      12  | 39:48.49 |    4:01.69   |      179149      |     197292
      13  | 43:50.43 |    6:13.74   |      197293      |     225341
Характеристики диапазона извлечения и сообщения об ошибках
Выбранный диапазон
     Имя файла D:\Sparks - Exotic Creatures Of The Deep.wav
     Пиковый уровень 99.8 %
     Качество диапазона 100.0 %
     CRC копии BB5EBB72
     Копирование... OK
Ошибок не произошло
Конец отчёта
Правила, инструкции, FAQ!!!
Торрент  Добавлен [26 мар 2019, 20:10] Скачать торрент Магнет ссылка
Скачать торрент
[ Размер 12.78 КБ / Просмотров 23 ]

Статус
Проверен 
 
Размер  310.47 МБ
Приватный: Нет (DHT включён)
.torrent скачан  11
 


     Отправить личное сообщение
   
Страница 1 из 1
Показать сообщения за:  Поле сортировки  
Начать новую тему Ответить на тему


Сейчас этот форум просматривают: нет зарегистрированных пользователей и гости: 0


Вы не можете начинать темы
Вы не можете отвечать на сообщения
Вы не можете редактировать свои сообщения
Вы не можете удалять свои сообщения
Вы не можете добавлять вложения

Перейти:  
cron